<?xml version="1.0" standalone="no"?>
<!DOCTYPE svg PUBLIC "-//W3C//DTD SVG 1.1//EN" "http://www.w3.org/Graphics/SVG/1.1/DTD/svg11.dtd" >
<svg>
<metadata>
Created by FontForge 20090622 at Tue Feb 28 15:45:15 2017
 By deploy user
Copyright (c) 2014 by Tipografia Leone. All rights reserved.
</metadata>
<defs>
<font id="UrbanElegance" horiz-adv-x="596" >
  <font-face 
    font-family="Urban Elegance"
    font-weight="400"
    font-stretch="normal"
    units-per-em="1000"
    panose-1="2 0 0 0 0 0 0 0 0 0"
    ascent="800"
    descent="-200"
    x-height="499"
    cap-height="691"
    bbox="-20 -200 1016 865"
    underline-thickness="50"
    underline-position="-50"
    unicode-range="U+0020-U+FB02"
  />
<missing-glyph horiz-adv-x="257" 
 />
    <glyph glyph-name=".notdef" horiz-adv-x="257" 
 />
    <glyph glyph-name=".null" horiz-adv-x="0" 
 />
    <glyph glyph-name="nonmarkingreturn" horiz-adv-x="257" 
 />
    <glyph glyph-name="space" unicode=" " horiz-adv-x="257" 
 />
    <glyph glyph-name="space" unicode="&#xa0;" horiz-adv-x="257" 
 />
    <glyph glyph-name="e" unicode="e" horiz-adv-x="456" 
d="M239 32q16 0 33.5 3.5t35 9t34 14.5t20.5 11l-14 33l31 15l31 -69q-50 -31 -80 -41t-64 -16h-1q-6 -1 -12.5 -1h-13.5q-55 0 -91.5 18.5t-61.5 51t-39.5 76t-17.5 93.5v19q0 53 9 103.5t36 85.5t70 52t84 17q42 0 85 -12.5t71 -48t41.5 -80t5.5 -112.5l-6 -24h-353
q2 -42 13 -78t30 -62.5t48.5 -42t75.5 -15.5zM385 271q11 54 -1 88t-34.5 61.5t-56.5 35.5t-65 8q-30 0 -64 -11.5t-58 -44t-28.5 -66t-5.5 -71.5h313z" />
    <glyph glyph-name="f" unicode="f" horiz-adv-x="328" 
d="M284 625l-20 8q8 21 7 21h-14q-22 -1 -41 -12t-33.5 -30t-22.5 -44t-8 -53v-216h132v-43h-132l1 -256h-39q-1 84 -1 166v90h-64v43h62q1 0 1 197q0 2 -0.5 5.5t-0.5 6.5v7v12q2 34 14 64.5t31.5 53.5t45.5 36.5t55 13.5h24.5t23.5 -2z" />
    <glyph glyph-name="g" unicode="g" horiz-adv-x="551" 
d="M216 98h18q42 0 78.5 -12.5t64 -33.5t43 -47.5t15.5 -59.5t-15.5 -54.5t-43 -43t-64 -34.5t-78.5 -13q-41 0 -77.5 13t-63.5 34.5t-43 50.5t-16 62q0 45 28.5 81.5t75.5 56.5q6 19 6 47q1 46 4 54q-35 25 -54.5 59.5t-19.5 74.5q0 36 15.5 67.5t42.5 55t63 37t78 13.5
q22 0 40 -3t35 -8h105v-42h-36q26 -23 40.5 -53t14.5 -67q0 -36 -15.5 -67t-42.5 -54t-63.5 -36.5t-77.5 -13.5q-25 0 -44.5 6t-30.5 6q-7 2 -14 3.5t-6 -30.5v-34.5t15 -15.5zM74 -40q0 -24 13 -46t35 -38.5t51 -26t61 -9.5q34 0 63.5 9.5t51.5 26t34.5 31t12.5 38.5
t-12.5 43t-34.5 35.5t-51.5 26.5t-63.5 10h-61t-51 -16.5t-35 -38t-13 -45.5zM115 333q0 -27 12.5 -51t34 -41.5t50 -28t61.5 -10.5q34 0 63 10.5t50.5 28t34 41.5t12.5 51q0 28 -12.5 52.5t-34 42.5t-50.5 28t-63 10q-33 0 -61.5 -10t-50 -28t-34 -42.5t-12.5 -52.5z" />
    <glyph glyph-name="p" unicode="p" horiz-adv-x="506" 
d="M81 126q3 -11 16 -20.5t33 -16.5t46 -11.5t55 -5.5q41 1 77.5 18.5t63.5 47t42.5 59t15.5 74.5q0 44 -15.5 80t-42.5 58.5t-63.5 39.5t-77.5 17q-31 0 -58.5 -4.5t-47.5 -12.5t-32 -18.5t-12 -22.5v-282zM81 469q26 17 65 28.5t85 11.5q50 -1 94 -21.5t76.5 -48.5
t51.5 -71.5t19 -96.5q0 -54 -19 -91.5t-51.5 -72.5t-76.5 -55.5t-94 -20.5q-44 0 -83.5 11t-65.5 28v-265h-41v694h40v-30z" />
    <glyph glyph-name="y" unicode="y" horiz-adv-x="535" 
d="M62 -123l23 -3l-3 -30q43 -6 73 6t56 83l40 99l-193 467h45l169 -415l166 415h45l-192 -464l-44 -117l-2 -9q-32 -79 -70.5 -94t-85.5 -15q-16 0 -36 5z" />
    <glyph glyph-name="R" unicode="R" horiz-adv-x="483" 
d="M84 256l2 -256h-42l-1 691h198q41 0 76.5 -13.5t62 -36.5t46.5 -62.5t23 -102.5q-2 -64 -13 -97t-47.5 -64.5t-72 -45t-76.5 -13.5h-99l281 -233l-28 -23l-308 256h-2zM85 652l-1 -354h156q31 0 59 10t59 35.5t39 51t10 81.5q-3 54 -20 86.5t-38 50.5t-49 28.5t-59 10.5
h-2h-154z" />
    <glyph glyph-name="d" unicode="d" horiz-adv-x="534" 
d="M446 356q-3 11 -16 21t-33.5 17.5t-46.5 11.5t-55 4q-40 0 -76 -17.5t-63 -47t-40.5 -59t-13.5 -72.5q0 -44 13.5 -74.5t40.5 -59.5t63 -38t76 -10q31 1 58.5 6t48 13.5t32.5 19.5t12 23v262zM446 30q-26 -17 -65 -27.5t-86 -12.5q-50 1 -93.5 13t-76 47t-49 73t-16.5 91
q0 52 16 91.5t49 72.5t76.5 56.5t93.5 23.5q45 0 83.5 -13t64.5 -32v278h42v-597q1 -25 1 -94h-39z" />
    <glyph glyph-name="h" unicode="h" horiz-adv-x="455" 
d="M88 693v-304q24 52 59.5 72.5t79.5 20.5q35 0 65.5 -14t53 -39t35.5 -58t14 -93l3 -275h-42v275q-1 52 -12 77.5t-29 44.5t-42.5 30t-51.5 11q-24 0 -46.5 -9.5t-40.5 -31.5t-30 -51t-16 -56l1 -293h-42l-1 693h42z" />
    <glyph glyph-name="i" unicode="i" horiz-adv-x="177" 
d="M65 500h41l1 -500h-41zM65 638h37v-44h-37v44z" />
    <glyph glyph-name="j" unicode="j" horiz-adv-x="354" 
d="M65 -115l31 -8q-5 -34 -4 -34q9 -1 17 -1l2 3q12 0 31 10.5t32.5 29t21.5 43t8 51.5v522h42v-532q-2 -34 -14 -64t-31.5 -52.5t-44.5 -36t-54 -14.5h-2q-13 0 -25 1.5t-23 2.5zM203 662h44v-42h-44v42z" />
    <glyph glyph-name="k" unicode="k" horiz-adv-x="440" 
d="M103 263l191 160l26 -30l-114 -96l195 -271l-33 -26l-194 267l-71 -59l1 -208h-43q1 2 0 45v646h42v-428z" />
    <glyph glyph-name="l" unicode="l" horiz-adv-x="162" 
d="M65 691h42l1 -691h-42z" />
    <glyph glyph-name="m" unicode="m" horiz-adv-x="739" 
d="M84 407v-26q24 37 59.5 55t77.5 18q53 0 94.5 -29t61.5 -77q10 30 27 48.5t38 32t44 20t44 6.5q35 0 65.5 -14t53 -38.5t35.5 -55t14 -68.5l1 -277h-42l1 277q-1 29 -11.5 51.5t-28.5 41.5t-41.5 30t-50.5 11q-25 0 -47.5 -10t-40.5 -27t-30 -36.5t-16 -45.5l-1 -292h-42
l1 275q-1 30 -11.5 55.5t-28.5 41.5t-42.5 27t-51.5 11q-25 0 -47 -9.5t-40 -24t-29.5 -37t-15.5 -49.5v-292h-42q-3 499 -5 501h46z" />
    <glyph glyph-name="n" unicode="n" horiz-adv-x="433" 
d="M81 425v-27q24 38 60 58.5t79 20.5q35 0 65.5 -14.5t53 -39t36 -58t14.5 -71.5l3 -294h-42l-1 294q-1 30 -12 55.5t-29 44.5t-42 30t-51 11q-25 0 -47.5 -9.5t-40.5 -26.5t-30 -40t-16 -50l1 -309h-42q4 497 2 499h39v-74z" />
    <glyph glyph-name="o" unicode="o" horiz-adv-x="513" 
d="M22 247q0 54 14 104.5t46 85.5t79.5 52t95.5 17t93 -17.5t76.5 -52.5t47 -85t15.5 -104q0 -53 -14 -104t-45.5 -86t-78 -51t-94.5 -16t-95.5 16t-79.5 51t-46 86t-14 104zM64 247q0 -44 10.5 -88t37 -73t66 -41.5t79.5 -12.5q39 0 78 12.5t64.5 41.5t36 73t10.5 88
q0 45 -12 87.5t-37.5 72t-63 43.5t-76.5 14q-40 0 -79.5 -13.5t-66 -43t-37 -72.5t-10.5 -88z" />
    <glyph glyph-name="q" unicode="q" horiz-adv-x="513" 
d="M432 408q0 12 -12 22.5t-32 18.5t-47.5 12.5t-58.5 4.5q-41 0 -77.5 -17t-63.5 -39.5t-42.5 -58.5t-15.5 -80q0 -45 15.5 -74.5t42.5 -59t63.5 -47t77.5 -18.5q29 1 55 5.5t46 11.5t33 16.5t16 20.5v282zM432 499h40v-694h-41v265q-26 -17 -65.5 -28t-83.5 -11
q-50 0 -94 20.5t-76.5 55.5t-51.5 72.5t-19 91.5q0 53 19 96.5t51.5 71.5t76.5 48.5t94 21.5q46 0 85 -11.5t65 -28.5v30z" />
    <glyph glyph-name="r" unicode="r" horiz-adv-x="279" 
d="M236 439l-20 3l5 24q-30 0 -50.5 -10.5t-38.5 -27.5t-29.5 -40t-15.5 -50l1 -338h-42q3 499 1 501h40v-74q24 38 59.5 58.5t78.5 20.5q5 0 11.5 -0.5t12.5 -2.5z" />
    <glyph glyph-name="s" unicode="s" horiz-adv-x="417" 
d="M329 399l-22 17l15 16q-17 12 -44 21.5t-64 9.5q-51 0 -85.5 -32.5t-34.5 -70.5q0 -18 9 -35t27.5 -29.5t39.5 -16t48 -7.5q34 -5 63 -14.5t50 -29t32.5 -44t11.5 -51.5q0 -30 -13 -54t-35.5 -46t-52 -31.5t-62.5 -9.5q-47 0 -90.5 17t-69.5 48l36 56l28 -18l-15 -27
q16 -12 43 -23.5t65 -11.5q52 0 88 29.5t36 70.5q0 19 -9 36.5t-25.5 32.5t-39 21t-49.5 10q-35 5 -64 10.5t-50 25t-33 43.5t-12 50q0 28 13.5 60t36.5 48.5t53 25.5t64 9q47 0 88.5 -17.5t67.5 -44.5z" />
    <glyph glyph-name="t" unicode="t" horiz-adv-x="340" 
d="M167 691v-198h121v-43h-121l1 -450h-40q-1 86 -1 168v282h-68v43h66v198h42z" />
    <glyph glyph-name="u" unicode="u" horiz-adv-x="450" 
d="M355 46v24q-23 -35 -59 -57t-79 -22q-35 0 -65 14.5t-52.5 39.5t-35.5 58.5t-14 71.5l-3 5v318h41v-318l2 -5q1 -29 12 -54.5t29 -45t42 -30.5t51 -11q25 0 47.5 10t40 27t29 40t14.5 49v340h42l2 -500h-43z" />
    <glyph glyph-name="v" unicode="v" horiz-adv-x="500" 
d="M26 485l43 15l179 -442l178 442l41 -17l-196 -483h-45z" />
    <glyph glyph-name="w" unicode="w" horiz-adv-x="705" 
d="M472 0l-46 3l-66 297l-94 -300l-46 3l-201 497h45l179 -442l103 346h33l70 -346l178 442h48z" />
    <glyph glyph-name="x" unicode="x" horiz-adv-x="444" 
d="M49 487l41 13l128 -206l131 206l45 -12l-148 -237l150 -241l-44 -10l-137 216l-132 -216l-42 10l149 249z" />
    <glyph glyph-name="z" unicode="z" horiz-adv-x="452" 
d="M45 43l312 414h-321v43h376v-43l-312 -414l322 3l1 -43l-377 -3z" />
    <glyph glyph-name="A" unicode="A" 
d="M459 212l-156 405l-146 -404zM286 691h35l256 -691h-44l-59 170l-332 1l-66 -171h-44z" />
    <glyph glyph-name="B" unicode="B" horiz-adv-x="512" 
d="M257 0h-203l-1 691h42h179q38 -1 71.5 -15t58 -37t39 -59t14.5 -70q0 -51 -20.5 -93t-65.5 -65q52 -22 76 -66t24 -110q0 -46 -12.5 -76t-41 -53t-65 -33.5t-78.5 -11.5zM256 651h-161l2 -276h190q30 1 55.5 11.5t40 32t23.5 43t9 48.5q0 25 -11 53.5t-30 46.5
t-44.5 28.5t-55.5 12.5h-18zM274 42q32 1 63 10.5t52 25.5t30.5 38t9.5 60q0 43 -11 66t-26.5 43.5t-44 33t-60.5 14.5h-190l-2 -291h161h18z" />
    <glyph glyph-name="C" unicode="C" horiz-adv-x="590" 
d="M529 568l-23 -28l-25 20l26 31q-29 24 -69.5 43t-94.5 19q-56 0 -105 -24t-86 -66t-58.5 -98t-21.5 -120q0 -63 20.5 -119.5t56.5 -99t85.5 -67.5t108.5 -25q54 0 93 18t68 42l-25 31l27 19l49 -57q-42 -45 -96 -70.5t-116 -25.5t-118.5 28t-100 76t-69.5 112.5
t-26 137.5q0 70 24.5 133.5t67 111.5t99.5 76.5t123 28.5q62 0 117.5 -25.5t96.5 -70.5z" />
    <glyph glyph-name="D" unicode="D" horiz-adv-x="575" 
d="M79 649v-607h215v2q41 1 91.5 22.5t77 62.5t27.5 98.5t1 119.5q0 61 -8.5 116t-35.5 96t-70 65t-85 25h-213zM37 691h42h213q50 -1 101 -28t83.5 -73.5t44.5 -109t12 -133.5t-4 -136.5t-36.5 -112t-90.5 -71t-108 -25.5l1 -2h-257z" />
    <glyph glyph-name="E" unicode="E" horiz-adv-x="485" 
d="M211 260h-125v-218h357l1 -42h-399l-1 691h399v-40h-357v-349h125v-42z" />
    <glyph glyph-name="F" unicode="F" horiz-adv-x="487" 
d="M276 258h-186l1 -258h-42l-1 691h399v-39h-357v-352h186v-42z" />
    <glyph glyph-name="G" unicode="G" horiz-adv-x="604" 
d="M556 85q-43 -57 -97.5 -75.5t-117.5 -18.5q-65 0 -122.5 27.5t-100.5 75.5t-68 112t-25 136q0 73 25 137t68 112t100.5 76t122.5 28q63 0 117.5 -25.5t97.5 -70.5l-56 -57l-26 21l30 29q-28 23 -68.5 41.5t-94.5 18.5q-57 0 -106.5 -24t-87 -66t-59 -98.5t-21.5 -121.5
q0 -64 21.5 -120.5t59 -99t87 -67t106.5 -24.5q50 0 94.5 13.5t78.5 57.5v160h-162l-36 -43l-39 29l46 54h233v-214v-3z" />
    <glyph glyph-name="H" unicode="H" horiz-adv-x="558" 
d="M93 258l-1 -258h-42l-1 691h42l2 -391h381l-2 391h42l1 -691h-42l1 258h-381z" />
    <glyph glyph-name="I" unicode="I" horiz-adv-x="138" 
d="M92 0h-42l-1 691h42z" />
    <glyph glyph-name="J" unicode="J" horiz-adv-x="305" 
d="M244 168q0 -36 -4.5 -76.5t-22 -65t-47 -30t-55.5 -5.5q-23 0 -43.5 11.5t-37.5 30.5l49 59l22 -16l-25 -31q3 -2 12 -7t23 -5q18 0 37.5 1.5t31 19t14.5 50.5t3 62v525h43v-523z" />
    <glyph glyph-name="K" unicode="K" horiz-adv-x="583" 
d="M86 691l4 -391h84l245 391l35 -18l-242 -386l330 -287h-54l-304 259l-95 1l-2 -260h-42l-1 691h42z" />
    <glyph glyph-name="L" unicode="L" horiz-adv-x="443" 
d="M86 42l319 -2l1 -42l-361 2l-1 691h42v-649z" />
    <glyph glyph-name="M" unicode="M" horiz-adv-x="623" 
d="M511 691h61l1 -691h-43l-1 610l-218 -610h-26l-209 610l1 -610h-42l-1 691h61l204 -597z" />
    <glyph glyph-name="N" unicode="N" horiz-adv-x="537" 
d="M90 691l353 -607v607h42l1 -691h-42l-354 610l1 -610h-41l-1 691h41z" />
    <glyph glyph-name="O" unicode="O" horiz-adv-x="709" 
d="M549 578q-35 39 -88 56.5t-108 17.5q-56 0 -111 -18t-92 -59.5t-52.5 -103.5t-15.5 -126q0 -65 16 -126.5t52.5 -103.5t91 -61.5t111.5 -19.5q58 0 112.5 20t91 62t53.5 103t17 126q0 68 -18.5 129.5t-59.5 103.5zM579 79q-43 -47 -102.5 -67.5t-123.5 -20.5
q-63 0 -125 22t-105 69.5t-63.5 117.5t-20.5 145q0 73 19 142.5t62 117t105.5 69t127.5 21.5q67 0 129 -23.5t104 -70.5t61.5 -115t19.5 -141q0 -78 -21 -148t-67 -118z" />
    <glyph glyph-name="P" unicode="P" horiz-adv-x="480" 
d="M95 255l1 -255h-42l-1 691h199q40 0 76 -13.5t62 -36.5t43.5 -69t14.5 -105q-2 -60 -17 -96.5t-41 -60t-62 -39.5t-76 -16h-157zM95 651v-354h157q31 0 58.5 12.5t50.5 37t32.5 46.5t11.5 74q3 51 -11 89.5t-35 56t-48.5 28t-58.5 10.5h-3h-154z" />
    <glyph glyph-name="Q" unicode="Q" horiz-adv-x="665" 
d="M509 593q-34 36 -82.5 51t-99.5 15t-102 -16.5t-85.5 -56t-49.5 -98.5t-15 -120q0 -59 14.5 -116.5t48.5 -96.5t84.5 -57t102.5 -19l-23 98l-49 -10l-8 33l89 18l31 -137q44 9 88.5 29.5t73.5 58.5t40.5 91.5t11.5 107.5q0 63 -16 124t-54 101zM537 122q-77 -62 -166 -75
l31 -137l-39 -7l-29 139q-65 1 -122.5 21.5t-97.5 64t-58.5 108t-18.5 132.5q0 70 18.5 135.5t58.5 109.5t97.5 63t115.5 19q59 0 117.5 -19t98.5 -63.5t58 -110t18 -134.5t-20 -135.5t-62 -110.5z" />
    <glyph glyph-name="S" unicode="S" horiz-adv-x="485" 
d="M104 130l19 -23l-24 -19q19 -20 51.5 -37.5t85.5 -17.5q32 0 61.5 10.5t51.5 28.5t35 43t13 54t-11.5 54.5t-32 46t-48 29.5t-59.5 13h-3q-43 4 -79.5 20.5t-63 42t-41.5 62.5t-15 73q0 39 16.5 73t45.5 58.5t68 38.5t83 14q57 0 102 -20t77 -57l-50 -51l-24 21l21 22
q-19 17 -50 31.5t-76 14.5q-33 0 -63.5 -11t-54 -30t-37.5 -44.5t-14 -55.5q0 -29 12 -59.5t33.5 -51t51 -34t63.5 -16.5q42 -6 77.5 -18.5t61.5 -37.5t40.5 -57t14.5 -67q0 -38 -16.5 -71.5t-44.5 -58t-66 -38.5t-81 -14q-61 0 -110.5 26t-78.5 68z" />
    <glyph glyph-name="T" unicode="T" horiz-adv-x="575" 
d="M310 651l1 -651h-42l-1 651h-218v40h260h217v-40h-217z" />
    <glyph glyph-name="U" unicode="U" horiz-adv-x="598" 
d="M94 173q2 -29 19.5 -54.5t43 -44t63.5 -29.5t81 -11q41 0 78 11t62 29.5t42 44t19 54.5v518h42v-518q-2 -37 -22 -70t-50.5 -58t-75.5 -39.5t-95 -14.5q-52 0 -98 14.5t-77.5 39.5t-52.5 58t-24 70v518h45v-518z" />
    <glyph glyph-name="V" unicode="V" horiz-adv-x="625" 
d="M40 680l42 11l230 -629l230 629l41 -15l-248 -676h-44z" />
    <glyph glyph-name="W" unicode="W" horiz-adv-x="915" 
d="M610 0h-46l-89 545h-9l-119 -545h-45l-253 691h44l231 -629l121 548h54l87 -548l228 629h45z" />
    <glyph glyph-name="X" unicode="X" horiz-adv-x="534" 
d="M48 691h47l177 -302l173 302h49l-197 -344l198 -347h-49l-180 312l-179 -312h-47l202 354z" />
    <glyph glyph-name="Y" unicode="Y" horiz-adv-x="681" 
d="M625 670l-265 -409l4 -261h-47v261l-263 407l38 23l241 -378h14l241 378z" />
    <glyph glyph-name="Z" unicode="Z" horiz-adv-x="565" 
d="M120 42h403l-1 -42h-448h-29l404 649l-405 -2v42l444 2h35z" />
    <glyph glyph-name="braceleft" unicode="{" horiz-adv-x="223" 
d="M148 68q-3 -34 40 -26v-42q-30 0 -40.5 3.5t-20 9.5t-15.5 14.5t-6 19.5v242q0 20 -12.5 32.5t-31.5 12.5h-20v42h20q19 0 31.5 13t12.5 32v225v2v3q3 18 20.5 29t58.5 10v-43q-41 8 -36 -37v-201q-5 -13 -16.5 -23t-25.5 -24v-11q14 -17 25.5 -25.5t16.5 -23.5z" />
    <glyph glyph-name="braceright" unicode="}" horiz-adv-x="188" 
d="M60 622q3 34 -41 26l1 42q30 0 40.5 -3.5t20 -9.5t15.5 -14.5t6 -19.5v-242q0 -20 12.5 -32.5t31.5 -12.5h20v-42h-20q-19 0 -31.5 -13t-12.5 -32v-225v-2v-3q-3 -18 -20.5 -29t-58.5 -10v43q41 -8 36 37v201q5 13 16.5 23t25.5 24v11q-14 17 -25.5 25.5t-16.5 23.5z" />
    <glyph glyph-name="Euro" unicode="&#x20ac;" horiz-adv-x="745" 
d="M711 102q-47 -50 -109 -80.5t-135 -30.5q-59 0 -111.5 20.5t-94.5 56.5t-71.5 85.5t-42.5 107.5h-107v43h100q0 9 -1.5 19t-1.5 19q0 16 1.5 30t3.5 27l-66 1v42l75 -1q15 55 46 101.5t72.5 80.5t92 53t105.5 19q73 0 135 -30.5t109 -80.5l-54 -50l-24 21l20 25
q-32 27 -76 49.5t-110 22.5q-47 0 -90.5 -15.5t-79 -43.5t-62.5 -67t-41 -85l311 -2v-42l-320 2q-5 -28 -5 -57q0 -9 1 -19t1 -19l266 -1v-43l-256 1q12 -49 38 -90.5t62 -72t81 -47.5t94 -17q66 0 112 23.5t80 56.5l-23 27l26 23z" />
    <glyph glyph-name="quotesinglbase" unicode="&#x201a;" horiz-adv-x="172" 
d="M88 65h48l-10 -65l-11 -83l-48 4l11 79z" />
    <glyph glyph-name="comma" unicode="," horiz-adv-x="173" 
d="M62 64h48l-1 -126h-46z" />
    <glyph glyph-name="period" unicode="." horiz-adv-x="145" 
d="M45 61h58l1 -61h-58z" />
    <glyph glyph-name="zero" unicode="0" horiz-adv-x="626" 
d="M97 344q-1 -71 16 -127.5t45.5 -98.5t70 -63.5t85.5 -21.5t85.5 21.5t70 63.5t45 98.5t15.5 127.5q1 70 -15.5 126.5t-45 98.5t-70 63t-85.5 21t-85 -22t-69.5 -64t-45.5 -98.5t-17 -124.5zM55 344q0 77 20 141t54.5 111.5t83.5 73t101 25.5t101 -24.5t83.5 -72
t54 -111.5t18.5 -143q1 -79 -18.5 -143t-54 -112t-83.5 -73t-101 -25t-101.5 25t-84 73t-54.5 112t-19 143z" />
    <glyph glyph-name="one" unicode="1" horiz-adv-x="263" 
d="M42 594l120 97h42l1 -691h-42l-1 637l-96 -79z" />
    <glyph glyph-name="two" unicode="2" horiz-adv-x="475" 
d="M112 41h321l1 -41h-377l-1 41l291 326q20 23 32 52t12 62q0 36 -13.5 67.5t-37.5 55t-56 36.5t-69 13q-35 0 -71.5 -18t-52.5 -39l20 -20l-20 -19l-43 40q28 44 75 71t92 27t84.5 -17t69.5 -46t47 -68t17 -83q0 -42 -16 -79t-43 -65z" />
    <glyph glyph-name="three" unicode="3" horiz-adv-x="431" 
d="M70 116l21 -18l-21 -24q18 -16 47.5 -30t70.5 -14q35 0 65.5 12t53.5 33t36.5 48.5t13.5 59.5q0 29 -12 54.5t-33 45.5t-49.5 33t-60.5 16h-64v42h64q33 2 61.5 13.5t50 30.5t33.5 43.5t12 51.5q0 30 -13.5 55.5t-36 44.5t-53.5 30t-65 11q-42 0 -70.5 -12t-45.5 -25
l16 -19l-20 -18l-45 49q29 32 72 49t93 17q44 0 82.5 -14t67.5 -39t46 -58t17 -71q0 -54 -33.5 -96.5t-84.5 -64.5q51 -24 82 -69t31 -100q0 -41 -16.5 -76t-45 -61.5t-67 -41.5t-82.5 -15q-50 0 -92 19.5t-70 51.5z" />
    <glyph glyph-name="four" unicode="4" horiz-adv-x="462" 
d="M294 662l-208 -366h205zM267 691h69l-3 -395l74 1v-42l-74 -1l1 -254h-42l-1 254h-254v42h2z" />
    <glyph glyph-name="five" unicode="5" horiz-adv-x="504" 
d="M61 376l-1 312l382 3v-42l-340 -3v-221q29 32 63.5 51t81.5 19q46 0 86.5 -19.5t70.5 -52.5t47.5 -78t17.5 -96t-17 -96.5t-47 -79.5t-70.5 -53.5t-86.5 -19.5q-54 0 -101 26.5t-97 77.5l62 64l24 -23l-33 -36q31 -27 64 -47t80 -20q37 0 70 16t57.5 44t38.5 66t14 81
t-14 80.5t-38.5 65t-57.5 43.5t-70 16q-52 0 -88 -28t-56 -50h-42z" />
    <glyph glyph-name="six" unicode="6" horiz-adv-x="506" 
d="M473 198q0 -44 -16.5 -81.5t-44.5 -65.5t-66.5 -43.5t-81.5 -15.5q-42 0 -78.5 15.5t-64.5 42t-44.5 63t-18.5 78.5v3q-4 39 -4 80.5v79.5q0 44 2.5 84.5t10.5 78.5q7 37 26 69t46 56t61 38.5t73 15.5q54 0 98 -19.5t77 -72.5l-47 -41l-28 23l28 22q-28 25 -57 35.5
t-70 10.5q-31 0 -59 -11.5t-51 -31.5t-38.5 -47.5t-21.5 -59.5q-7 -37 -10 -77.5t-3 -84.5q0 -8 0.5 -15t0.5 -15q26 42 64 72.5t110 36.5q64 0 96.5 -13.5t59 -40t38.5 -71.5t13 -89v-9zM432 205q-1 34 -9 72t-27.5 60t-49 32.5t-75.5 9.5q-53 -3 -78 -17t-47 -42.5
t-34.5 -59.5t-12.5 -65t13.5 -63.5t36.5 -51.5t53 -35t64 -13t64.5 13t53 35.5t35.5 52t13 63.5v9z" />
    <glyph glyph-name="seven" unicode="7" horiz-adv-x="443" 
d="M346 649l-302 -2v42l372 2l-321 -691l-43 13z" />
    <glyph glyph-name="eight" unicode="8" horiz-adv-x="459" 
d="M32 180q0 61 31.5 105.5t80.5 69.5q-40 22 -65 61.5t-25 105.5q0 36 14 67.5t38 55t56.5 37t68.5 13.5q38 0 71 -13.5t57 -37t38 -55t14 -67.5q0 -66 -24.5 -105.5t-66.5 -61.5q52 -25 82.5 -69.5t30.5 -105.5q0 -41 -15.5 -77.5t-43 -58t-64.5 -37.5t-79 -16
q-41 0 -77 16t-63 37.5t-43 58t-16 77.5zM96 522q0 -27 10.5 -59.5t29 -50t43 -28t52.5 -10.5t53 10.5t44 28t29.5 50t10.5 59.5t-10.5 51t-29.5 42t-44 28t-53 10t-52.5 -10t-43 -28t-29 -42t-10.5 -51zM74 180q0 -32 12.5 -60.5t34 -45t50 -29t60.5 -12.5q33 0 62.5 12.5
t51 29t34 45t12.5 60.5q0 33 -12.5 58.5t-34 47.5t-51 34.5t-62.5 12.5q-32 0 -60.5 -12.5t-50 -34.5t-34 -47.5t-12.5 -58.5z" />
    <glyph glyph-name="nine" unicode="9" horiz-adv-x="489" 
d="M38 488q0 43 16.5 80.5t44.5 66t66 45t81 16.5t81 -16t66 -43t44.5 -63.5t18.5 -78.5v-3q3 -41 3 -84v-84q0 -40 -2.5 -78.5t-9.5 -74.5q-8 -39 -28 -72t-49 -56.5t-65.5 -36.5t-76.5 -13q-50 0 -106 26.5t-95 79.5l67 64l29 -28l-37 -32q20 -33 65 -50t84 -17
q33 0 62 11t52 30.5t38.5 46.5t22.5 58q5 37 8 76.5t3 81.5v34q-28 -42 -74 -66.5t-103 -24.5q-41 0 -78 15.5t-65 42t-45 62.5t-18 78v7zM78 483q2 -33 15.5 -62t36 -50.5t52 -34t62.5 -12.5q36 0 67 13t54 35.5t36 53t13 65.5q0 33 -13.5 62.5t-37 51.5t-53.5 35t-63 13
q-36 0 -66.5 -14t-53.5 -37t-36 -54t-13 -65z" />
    <glyph glyph-name="questiondown" unicode="&#xbf;" horiz-adv-x="432" 
d="M202 0l5 258q-174 16 -171 217q2 213 189 218q138 3 197 -132l-44 -41l-20 25l22 21q-25 74 -155 86q-148 0 -148 -177q-5 -162 119 -177l52 -10v-41l-2 -247h-44zM246 -99h-42v41h42v-41z" />
    <glyph glyph-name="ae" unicode="&#xe6;" horiz-adv-x="743" 
d="M322 40q-23 -23 -54 -36.5t-67 -13.5q-33 0 -62.5 12t-51 32.5t-34.5 48t-13 58.5t13 59t34.5 48.5t51 32.5t62.5 12l115 -22q2 17 6 54q0 29 -9 54t-23 43.5t-33.5 29.5t-40.5 12h-1q-48 0 -103 -17l9 -38l-38 -12l-22 76q87 33 154 33h1q45 -2 81 -31t53 -76
q28 49 70 78.5t92 29.5q42 0 87 -18t71.5 -52t32.5 -81.5t6 -101.5v-24h-347v-46q8 -33 23.5 -60.5t36.5 -48t46.5 -32t54.5 -11.5q16 0 33.5 3.5t35 9t34 14t19.5 10.5l-16 33l35 16l32 -69q-52 -31 -82 -41t-64 -16h-1q-6 -1 -12.5 -1h-13.5q-48 0 -89.5 24.5t-70.5 66.5
q1 -34 2 -57t-1 -25h-41zM669 271q-3 40 -7.5 77t-25.5 63t-57 39.5t-67 13.5q-30 0 -57 -14.5t-47.5 -40.5t-32.5 -61.5t-12 -76.5h306zM313 230l-112 22q-25 0 -46.5 -9t-37.5 -24t-25 -35t-9 -43t9 -42.5t25 -34t37.5 -23t46.5 -8.5t47 8.5t38.5 23t26 34t9.5 42.5v31
q-7 27 -9 36v22z" />
    <glyph glyph-name="a" unicode="a" horiz-adv-x="406" 
d="M322 40q-23 -23 -54 -36.5t-67 -13.5q-33 0 -62.5 12t-51 32.5t-34.5 48t-13 58.5q0 33 13.5 61t36.5 48.5t53.5 31.5t64.5 11l50 -5l37 -11l25 -20l2 58q0 30 -7.5 57t-21.5 47t-33.5 32t-43.5 13h-1q-54 0 -116 -19l8 -27l-28 -8l-20 66q89 30 156 30h1q29 -1 55 -14.5
t46 -36.5t32.5 -54t14.5 -66v-10q-1 -25 -1 -53q-1 -24 -1 -54.5v-61.5q0 -29 0.5 -56t1.5 -100h-41zM320 216l-27 20l-43 13l-42 3q-26 0 -48.5 -8t-39.5 -22.5t-27 -35t-10 -45.5q0 -23 9 -42.5t25 -34t37.5 -23t46.5 -8.5t47 8.5t38.5 23t26 34t9.5 42.5z" />
    <glyph glyph-name="b" unicode="b" horiz-adv-x="523" 
d="M100 94q0 -12 12 -23t32.5 -19.5t48 -13.5t58.5 -6q40 1 76 10t63 38t40.5 59.5t13.5 74.5q0 43 -13.5 72.5t-40.5 59t-63 47t-76 17.5q-29 0 -55 -4t-46.5 -11.5t-33.5 -17.5t-16 -21v-262zM99 0h-39q0 69 1 94v597h42v-278q26 19 64.5 32t83.5 13q50 0 93.5 -23.5
t76.5 -56.5t49 -72.5t16 -91.5q0 -53 -16.5 -91t-49 -73t-76 -47t-93.5 -13q-47 2 -86 12.5t-65 27.5z" />
    <glyph glyph-name="c" unicode="c" horiz-adv-x="478" 
d="M384 381l-23 22l17 19q-17 13 -45 27.5t-71 14.5q-41 0 -77 -17t-62.5 -46t-42 -68.5t-15.5 -84.5q0 -44 15.5 -83.5t42 -68.5t62.5 -46t77 -17t70.5 14t44.5 26l-19 22l22 22l52 -49q-34 -35 -77 -56t-93 -21q-49 0 -92.5 20.5t-76 55.5t-51.5 81.5t-19 99.5t19 100
t51.5 82t76 55.5t92.5 20.5q52 0 96 -21.5t76 -56.5z" />
    <glyph glyph-name="oe" unicode="&#x153;" horiz-adv-x="880" 
d="M664 32q16 0 33.5 0.5t35 6t36.5 16l26 14.5l-15 34l33 11l28 -66q-26 -14 -71 -35t-79 -21h-1q-6 -1 -12.5 -1h-13.5q-33 0 -62.5 11.5t-54.5 32t-44.5 49t-31.5 63.5q-14 -35 -35.5 -63.5t-49 -49.5t-60.5 -32.5t-69 -11.5q-48 0 -91 20.5t-75 55.5t-50.5 81.5
t-18.5 99.5q0 54 18.5 101t50.5 82t75 55.5t91 20.5q36 0 68.5 -11.5t60 -32t49 -49.5t35.5 -63q23 69 72 113t111 44q42 0 84 -14.5t68.5 -48.5t41.5 -80t13 -110v-24h-363q2 -42 16 -78t36.5 -62.5t52 -42t62.5 -15.5zM64 247q0 -44 15 -83.5t41.5 -68.5t61.5 -46t75 -17
q39 0 73.5 17t60 46t40.5 68.5t15 83.5q0 45 -15 84.5t-40.5 69t-60 46.5t-73.5 17q-40 0 -75 -17t-61.5 -46.5t-41.5 -69t-15 -84.5zM810 271q9 50 -4.5 85.5t-34.5 61.5t-54 36t-64 10q-30 0 -57 -15t-48 -41t-34.5 -61.5t-16.5 -75.5h313z" />
    <glyph glyph-name="OE" unicode="&#x152;" horiz-adv-x="1056" 
d="M575 88q-43 -47 -98.5 -72t-119.5 -25q-63 0 -120 27t-107 74.5t-75.5 112.5t-25.5 140q0 73 24.5 136.5t74.5 111t107 75t122 27.5q89 0 160 -46.5t113 -126.5v169h385v-40h-343v-262h173v-42h-173v-305h343l1 -42h-385l-1 166q-23 -45 -55 -78zM544 570
q-35 39 -83.5 60.5t-103.5 21.5q-56 0 -105.5 -24t-93.5 -65.5t-65 -97.5t-21 -120q0 -65 21 -121.5t64.5 -98.5t93 -66.5t106.5 -24.5q55 0 103 22t84 60t58.5 89.5t27.5 111.5v55q-5 60 -27.5 110t-58.5 88z" />
    <glyph glyph-name="question" unicode="?" horiz-adv-x="466" 
d="M209 0l-2 247v41l52 10q124 15 119 177q0 177 -148 177q-130 -12 -155 -86l22 -21l-20 -25l-44 41q59 135 197 132q187 -5 189 -218q3 -201 -171 -217l5 -258h-44zM209 -99h42v41h-42v-41z" />
    <glyph glyph-name="acute" unicode="&#xb4;" horiz-adv-x="209" 
d="M98 551l-43 2l66 87h48z" />
    <glyph glyph-name="grave" unicode="`" horiz-adv-x="204" 
d="M31 640l40 30l101 -96l-32 -21z" />
    <glyph glyph-name="agrave" unicode="&#xe0;" horiz-adv-x="406" 
d="M322 40q-23 -23 -54 -36.5t-67 -13.5q-33 0 -62.5 12t-51 32.5t-34.5 48t-13 58.5q0 33 13.5 61t36.5 48.5t53.5 31.5t64.5 11l50 -5l37 -11l25 -20l2 58q0 30 -7.5 57t-21.5 47t-33.5 32t-43.5 13h-1q-54 0 -116 -19l8 -27l-28 -8l-20 66q89 30 156 30h1q29 -1 55 -14.5
t46 -36.5t32.5 -54t14.5 -66v-10q-1 -25 -1 -53q-1 -24 -1 -54.5v-61.5q0 -29 0.5 -56t1.5 -100h-41zM320 216l-27 20l-43 13l-42 3q-26 0 -48.5 -8t-39.5 -22.5t-27 -35t-10 -45.5q0 -23 9 -42.5t25 -34t37.5 -23t46.5 -8.5t47 8.5t38.5 23t26 34t9.5 42.5zM91 640l40 30
l101 -96l-32 -21z" />
    <glyph glyph-name="aacute" unicode="&#xe1;" horiz-adv-x="406" 
d="M322 40q-23 -23 -54 -36.5t-67 -13.5q-33 0 -62.5 12t-51 32.5t-34.5 48t-13 58.5q0 33 13.5 61t36.5 48.5t53.5 31.5t64.5 11l50 -5l37 -11l25 -20l2 58q0 30 -7.5 57t-21.5 47t-33.5 32t-43.5 13h-1q-54 0 -116 -19l8 -27l-28 -8l-20 66q89 30 156 30h1q29 -1 55 -14.5
t46 -36.5t32.5 -54t14.5 -66v-10q-1 -25 -1 -53q-1 -24 -1 -54.5v-61.5q0 -29 0.5 -56t1.5 -100h-41zM320 216l-27 20l-43 13l-42 3q-26 0 -48.5 -8t-39.5 -22.5t-27 -35t-10 -45.5q0 -23 9 -42.5t25 -34t37.5 -23t46.5 -8.5t47 8.5t38.5 23t26 34t9.5 42.5zM233 551l-43 2
l66 87h48z" />
    <glyph glyph-name="Agrave" unicode="&#xc0;" 
d="M459 212l-156 405l-146 -404zM286 691h35l256 -691h-44l-59 170l-332 1l-66 -171h-44zM190 831l40 30l101 -96l-32 -21z" />
    <glyph glyph-name="Aacute" unicode="&#xc1;" 
d="M459 212l-156 405l-146 -404zM286 691h35l256 -691h-44l-59 170l-332 1l-66 -171h-44zM344 742l-43 2l66 87h48z" />
    <glyph glyph-name="Acircumflex" unicode="&#xc2;" 
d="M459 212l-156 405l-146 -404zM286 691h35l256 -691h-44l-59 170l-332 1l-66 -171h-44z" />
    <glyph glyph-name="Egrave" unicode="&#xc8;" horiz-adv-x="485" 
d="M211 260h-125v-218h357l1 -42h-399l-1 691h399v-40h-357v-349h125v-42zM121 831l40 30l101 -96l-32 -21z" />
    <glyph glyph-name="Eacute" unicode="&#xc9;" horiz-adv-x="485" 
d="M211 260h-125v-218h357l1 -42h-399l-1 691h399v-40h-357v-349h125v-42zM261 742l-43 2l66 87h48z" />
    <glyph glyph-name="Ograve" unicode="&#xd2;" horiz-adv-x="690" 
d="M543 578q-35 39 -88 56.5t-108 17.5q-56 0 -111 -18t-92 -59.5t-52.5 -103.5t-15.5 -126q0 -65 16 -126.5t52.5 -103.5t91 -61.5t111.5 -19.5q58 0 112.5 20t91 62t53.5 103t17 126q0 68 -18.5 129.5t-59.5 103.5zM573 79q-43 -47 -102.5 -67.5t-123.5 -20.5
q-63 0 -125 22t-105 69.5t-63.5 117.5t-20.5 145q0 73 19 142.5t62 117t105.5 69t127.5 21.5q67 0 129 -23.5t104 -70.5t61.5 -115t19.5 -141q0 -78 -21 -148t-67 -118zM212 831l40 30l101 -96l-32 -21z" />
    <glyph glyph-name="Oacute" unicode="&#xd3;" horiz-adv-x="690" 
d="M543 578q-35 39 -88 56.5t-108 17.5q-56 0 -111 -18t-92 -59.5t-52.5 -103.5t-15.5 -126q0 -65 16 -126.5t52.5 -103.5t91 -61.5t111.5 -19.5q58 0 112.5 20t91 62t53.5 103t17 126q0 68 -18.5 129.5t-59.5 103.5zM573 79q-43 -47 -102.5 -67.5t-123.5 -20.5
q-63 0 -125 22t-105 69.5t-63.5 117.5t-20.5 145q0 73 19 142.5t62 117t105.5 69t127.5 21.5q67 0 129 -23.5t104 -70.5t61.5 -115t19.5 -141q0 -78 -21 -148t-67 -118zM399 742l-43 2l66 87h48z" />
    <glyph glyph-name="Ugrave" unicode="&#xd9;" horiz-adv-x="598" 
d="M94 173q2 -29 19.5 -54.5t43 -44t63.5 -29.5t81 -11q41 0 78 11t62 29.5t42 44t19 54.5v518h42v-518q-2 -37 -22 -70t-50.5 -58t-75.5 -39.5t-95 -14.5q-52 0 -98 14.5t-77.5 39.5t-52.5 58t-24 70v518h45v-518zM184 831l40 30l101 -96l-32 -21z" />
    <glyph glyph-name="Uacute" unicode="&#xda;" horiz-adv-x="598" 
d="M94 173q2 -29 19.5 -54.5t43 -44t63.5 -29.5t81 -11q41 0 78 11t62 29.5t42 44t19 54.5v518h42v-518q-2 -37 -22 -70t-50.5 -58t-75.5 -39.5t-95 -14.5q-52 0 -98 14.5t-77.5 39.5t-52.5 58t-24 70v518h45v-518zM340 742l-43 2l66 87h48z" />
    <glyph glyph-name="Yacute" unicode="&#xdd;" horiz-adv-x="681" 
d="M625 670l-265 -409l4 -261h-47v261l-263 407l38 23l241 -378h14l241 378zM390 742l-43 2l66 87h48z" />
    <glyph glyph-name="egrave" unicode="&#xe8;" horiz-adv-x="456" 
d="M239 32q16 0 33.5 3.5t35 9t34 14.5t20.5 11l-14 33l31 15l31 -69q-50 -31 -80 -41t-64 -16h-1q-6 -1 -12.5 -1h-13.5q-55 0 -91.5 18.5t-61.5 51t-39.5 76t-17.5 93.5v19q0 53 9 103.5t36 85.5t70 52t84 17q42 0 85 -12.5t71 -48t41.5 -80t5.5 -112.5l-6 -24h-353
q2 -42 13 -78t30 -62.5t48.5 -42t75.5 -15.5zM385 271q11 54 -1 88t-34.5 61.5t-56.5 35.5t-65 8q-30 0 -64 -11.5t-58 -44t-28.5 -66t-5.5 -71.5h313zM120 640l40 30l101 -96l-32 -21z" />
    <glyph glyph-name="eacute" unicode="&#xe9;" horiz-adv-x="456" 
d="M239 32q16 0 33.5 3.5t35 9t34 14.5t20.5 11l-14 33l31 15l31 -69q-50 -31 -80 -41t-64 -16h-1q-6 -1 -12.5 -1h-13.5q-55 0 -91.5 18.5t-61.5 51t-39.5 76t-17.5 93.5v19q0 53 9 103.5t36 85.5t70 52t84 17q42 0 85 -12.5t71 -48t41.5 -80t5.5 -112.5l-6 -24h-353
q2 -42 13 -78t30 -62.5t48.5 -42t75.5 -15.5zM385 271q11 54 -1 88t-34.5 61.5t-56.5 35.5t-65 8q-30 0 -64 -11.5t-58 -44t-28.5 -66t-5.5 -71.5h313zM262 551l-43 2l66 87h48z" />
    <glyph glyph-name="igrave" unicode="&#xec;" horiz-adv-x="211" 
d="M95 500h41l1 -500h-41zM15 640h55l66 -87l-37 -8z" />
    <glyph glyph-name="iacute" unicode="&#xed;" horiz-adv-x="211" 
d="M65 500h41l1 -500h-41zM104 547l-35 6l66 87h48z" />
    <glyph glyph-name="ograve" unicode="&#xf2;" horiz-adv-x="527" 
d="M22 247q0 54 14 104.5t46 85.5t79.5 52t95.5 17t93 -17.5t76.5 -52.5t47 -85t15.5 -104q0 -53 -14 -104t-45.5 -86t-78 -51t-94.5 -16t-95.5 16t-79.5 51t-46 86t-14 104zM64 247q0 -44 10.5 -88t37 -73t66 -41.5t79.5 -12.5q39 0 78 12.5t64.5 41.5t36 73t10.5 88
q0 45 -12 87.5t-37.5 72t-63 43.5t-76.5 14q-40 0 -79.5 -13.5t-66 -43t-37 -72.5t-10.5 -88zM156 640l40 30l101 -96l-32 -21z" />
    <glyph glyph-name="oacute" unicode="&#xf3;" horiz-adv-x="527" 
d="M22 247q0 54 14 104.5t46 85.5t79.5 52t95.5 17t93 -17.5t76.5 -52.5t47 -85t15.5 -104q0 -53 -14 -104t-45.5 -86t-78 -51t-94.5 -16t-95.5 16t-79.5 51t-46 86t-14 104zM64 247q0 -44 10.5 -88t37 -73t66 -41.5t79.5 -12.5q39 0 78 12.5t64.5 41.5t36 73t10.5 88
q0 45 -12 87.5t-37.5 72t-63 43.5t-76.5 14q-40 0 -79.5 -13.5t-66 -43t-37 -72.5t-10.5 -88zM304 551l-43 2l66 87h48z" />
    <glyph glyph-name="ugrave" unicode="&#xf9;" horiz-adv-x="450" 
d="M355 46v24q-23 -35 -59 -57t-79 -22q-35 0 -65 14.5t-52.5 39.5t-35.5 58.5t-14 71.5l-3 5v318h41v-318l2 -5q1 -29 12 -54.5t29 -45t42 -30.5t51 -11q25 0 47.5 10t40 27t29 40t14.5 49v340h42l2 -500h-43zM119 640l40 30l101 -96l-32 -21z" />
    <glyph glyph-name="uacute" unicode="&#xfa;" horiz-adv-x="450" 
d="M355 46v24q-23 -35 -59 -57t-79 -22q-35 0 -65 14.5t-52.5 39.5t-35.5 58.5t-14 71.5l-3 5v318h41v-318l2 -5q1 -29 12 -54.5t29 -45t42 -30.5t51 -11q25 0 47.5 10t40 27t29 40t14.5 49v340h42l2 -500h-43zM251 551l-43 2l66 87h48z" />
    <glyph glyph-name="yacute" unicode="&#xfd;" horiz-adv-x="535" 
d="M62 -123l23 -3l-3 -30q43 -6 73 6t56 83l40 99l-193 467h45l169 -415l166 415h45l-192 -464l-44 -117l-2 -9q-32 -79 -70.5 -94t-85.5 -15q-16 0 -36 5zM314 551l-43 2l66 87h48z" />
    <glyph glyph-name="colon" unicode=":" horiz-adv-x="182" 
d="M60 57h58l1 -57h-58zM60 500h58v-59h-58v59z" />
    <glyph glyph-name="semicolon" unicode=";" horiz-adv-x="169" 
d="M58 500h59v-59h-59v59zM66 69h48v-147h-48v147z" />
    <glyph glyph-name="equal" unicode="=" horiz-adv-x="440" 
d="M82 435h309v-44h-309v44zM82 248h309v-44h-309v44z" />
    <glyph glyph-name="Ccedilla" unicode="&#xc7;" horiz-adv-x="634" 
d="M554 570l-21 -22l-20 23l20 20q-4 2 -7 5q-27 22 -66 40.5t-92 18.5q-57 0 -107 -25t-87 -68t-58.5 -99.5t-21.5 -120.5q0 -62 21 -118.5t58 -99.5t87 -68t108 -25q53 0 92.5 18.5t65.5 40.5l-18 21l22 22l51 -48q-45 -48 -101.5 -71t-122.5 -23l-9 -23q4 0 12.5 -4
t17.5 -11.5t15.5 -18t6.5 -22.5q0 -14 -10.5 -28.5t-85.5 -39.5l-33 25q4 0 12 1.5t39.5 10.5t38 15.5t6.5 17.5q0 9 -6 15t-14 9.5t-16.5 5t-14.5 1.5h-8l1 51q-54 12 -101 43t-81.5 76.5t-54 103.5t-19.5 123q0 75 25 139.5t67.5 112t100 74.5t122.5 27q62 0 117 -25
t97 -70q0 -1 0.5 -1t0.5 -1z" />
    <glyph glyph-name="ccedilla" unicode="&#xe7;" horiz-adv-x="493" 
d="M281 -36q4 0 12.5 -4t17.5 -11.5t15.5 -18t6.5 -22.5q0 -14 -11 -29t-108 -48l-5 34q7 1 15 3.5t15.5 6.5t33.5 13.5t26 17.5q0 11 -5.5 18t-13.5 10.5t-17 5t-15 1.5q-2 0 -4.5 -0.5t-4.5 -0.5l2 54q-43 7 -80 29.5t-64.5 56.5t-43 77t-15.5 92q0 53 18.5 99.5t51 81.5
t76.5 55.5t94 20.5q51 0 95.5 -21t76.5 -58l-49 -49l-25 21l20 22q-16 13 -46 28t-72 15q-41 0 -77 -17t-63 -46t-42.5 -68t-15.5 -84t15.5 -84.5t42.5 -68.5t63 -46t77 -17t69.5 13t45.5 27l-19 25l24 20l49 -52q-30 -32 -70 -52t-88 -23z" />
    <glyph glyph-name="cent" unicode="&#xa2;" horiz-adv-x="478" 
d="M242 553h47l-2 -49q44 -5 81.5 -25.5t65.5 -50.5l-51 -47l-28 20l21 24q-54 32 -89 37v-428q33 5 53 16t40 28l-15 18l21 22l46 -50q-30 -31 -66.5 -50.5t-78.5 -24.5v-48h-47v48q-45 4 -84.5 25.5t-69 56t-50 79t-20.5 94.5t20.5 94.5t50 79t69 56t84.5 26.5zM58 248
q0 -41 17 -78t40.5 -65.5t55.5 -47.5t69 -23v428q-37 -5 -69 -23t-59 -46.5t-40.5 -65.5t-13.5 -79z" />
    <glyph glyph-name="bar" unicode="|" horiz-adv-x="131" 
d="M55 689h26l1 -688h-26z" />
    <glyph glyph-name="glyph107" horiz-adv-x="478" 
d="M386 380l-19 17l19 18q-20 18 -50.5 33.5t-73.5 15.5q-41 0 -77 -17t-62.5 -46t-42 -68.5t-15.5 -84.5q0 -44 15.5 -83.5t42 -68.5t62.5 -46t77 -17t71 14t50 32l-16 19l21 18l44 -48q-34 -35 -77 -56t-93 -21q-49 0 -92.5 20.5t-76 55.5t-51.5 81.5t-19 99.5t19 100
t51.5 82t76 55.5t92.5 20.5q52 0 96 -21.5t76 -56.5zM220 572h47v-647h-47v647z" />
    <glyph glyph-name="dollar" unicode="$" horiz-adv-x="466" 
d="M211 652q-27 -5 -51 -18t-42 -31.5t-28.5 -41.5t-10.5 -48q0 -26 10 -50t27.5 -43.5t41.5 -33.5t53 -20v286zM253 35q27 4 51.5 15.5t43 29t29.5 40.5t11 50t-10 51t-28 44t-43 33.5t-54 19.5v-283zM253 713v-19q55 0 98.5 -21t52.5 -34l-34 -27q-1 7 -37.5 25t-79.5 18
v-296q39 -8 72 -25t57 -41.5t37.5 -55t13.5 -64.5q0 -35 -14 -66t-38 -55t-57 -39.5t-71 -19.5v-25h-42v23q-4 1 -11 1q-53 5 -95.5 30.5t-52.5 38.5l34 27q4 -7 41.5 -31t83.5 -24v290q-39 7 -71 24t-55.5 42t-36.5 55.5t-13 64.5q0 36 13 66.5t36.5 54.5t56 40t70.5 22v21
h42z" />
    <glyph glyph-name="quoteleft" unicode="&#x2018;" horiz-adv-x="150" 
d="M129 555l-43 -20l-27 58l-33 83l50 11l27 -75z" />
    <glyph glyph-name="quoteright" unicode="&#x2019;" horiz-adv-x="159" 
d="M59 686l48 5l7 -63l11 -75h-47l-12 70z" />
    <glyph glyph-name="quotedblright" unicode="&#x201d;" horiz-adv-x="237" 
d="M59 686l48 5l7 -63l11 -76l-50 1l-9 70zM132 686l48 5l7 -63l11 -76l-50 1l-9 70z" />
    <glyph glyph-name="quotedblleft" unicode="&#x201c;" horiz-adv-x="218" 
d="M170 623l-9 -67l-45 5l6 67l7 63l48 -5zM97 623l-9 -67l-45 5l6 67l7 63l48 -5z" />
    <glyph glyph-name="quotedbl" unicode="&#x22;" horiz-adv-x="217" 
d="M36 691h48l-1 -136l-47 -1v137zM111 691h48v-136l-48 -1v137z" />
    <glyph glyph-name="quotedblbase" unicode="&#x201e;" horiz-adv-x="231" 
d="M69 71l49 -6l-8 -63l-9 -67l-46 5l8 68zM144 69l47 -6l-8 -63l-8 -66l-47 5l9 68z" />
    <glyph glyph-name="ordfeminine" unicode="&#xaa;" horiz-adv-x="179" 
d="M124 320v6q-14 -10 -37 -10q-26 0 -44 17t-18 42q0 23 18 39.5t46 16.5h35v6q0 17 -9.5 30.5t-22.5 13.5t-22 -1t-23 -4l2 -14l-12 -2l-7 38q33 8 62 8q23 0 38.5 -19t16.5 -45v-23v-38q0 -19 -1 -61h-22zM87 407q-15 0 -26 -10.5t-11 -21.5q0 -13 11 -23t26 -10
q14 0 25.5 10t11.5 23v32h-37z" />
    <glyph glyph-name="ordmasculine" unicode="&#xba;" horiz-adv-x="232" 
d="M62 395q0 -20 16 -37.5t37 -17.5q9 0 17.5 5t15.5 12.5t11.5 17.5t4.5 20q0 13 -4.5 23.5t-11.5 19t-15.5 13.5t-17.5 5q-10 0 -20 -5t-17 -13.5t-11.5 -19t-4.5 -23.5zM42 395q0 36 21 58.5t52 22.5q15 0 27.5 -6t21.5 -17t15 -25.5t6 -32.5q0 -16 -6 -29.5t-15 -24
t-21.5 -16.5t-27.5 -6q-31 0 -52 22.5t-21 53.5z" />
    <glyph glyph-name="twosuperior" unicode="&#xb2;" horiz-adv-x="280" 
d="M242 347v-30h-209v30l155 173q11 12 17.5 28.5t6.5 30.5q0 17 -7.5 32.5t-19.5 27t-28 18.5t-36 6q-17 -3 -30 -8.5t-29 -19.5l23 -24l-21 -13l-43 43q20 17 48 35.5t55 18.5q25 0 46.5 -9t37.5 -25t25 -37t9 -45q0 -23 -10 -45.5t-21 -36.5l-133 -150h164z" />
    <glyph glyph-name="threesuperior" unicode="&#xb3;" horiz-adv-x="265" 
d="M54 365q9 -8 24.5 -15.5t34.5 -7.5q15 0 30 6t26.5 16t18.5 23.5t7 28.5t-6.5 28t-17 23t-24 16.5t-27.5 8.5h-25v31h25q15 1 28.5 7t24 15.5t17 22t6.5 25.5t-7 25.5t-18.5 22t-26 15t-30.5 5.5q-19 0 -34 -6t-25 -14l9 -15l-14 -9l-32 35q36 39 96 39q24 0 44.5 -7.5
t36.5 -21t25 -31t9 -38.5q0 -60 -56 -86q22 -15 37.5 -39.5t15.5 -51.5q0 -22 -9 -41t-24.5 -33t-36 -22t-43.5 -8q-30 0 -54 11t-41 31l29 37l17 -10z" />
    <glyph glyph-name="dieresis" unicode="&#xa8;" horiz-adv-x="263" 
d="M42 677h56v-56h-56v56zM155 678h56v-56h-56v56z" />
    <glyph glyph-name="adieresis" unicode="&#xe4;" horiz-adv-x="406" 
d="M322 40q-23 -23 -54 -36.5t-67 -13.5q-33 0 -62.5 12t-51 32.5t-34.5 48t-13 58.5q0 33 13.5 61t36.5 48.5t53.5 31.5t64.5 11l50 -5l37 -11l25 -20l2 58q0 30 -7.5 57t-21.5 47t-33.5 32t-43.5 13h-1q-54 0 -116 -19l8 -27l-28 -8l-20 66q89 30 156 30h1q29 -1 55 -14.5
t46 -36.5t32.5 -54t14.5 -66v-10q-1 -25 -1 -53q-1 -24 -1 -54.5v-61.5q0 -29 0.5 -56t1.5 -100h-41zM320 216l-27 20l-43 13l-42 3q-26 0 -48.5 -8t-39.5 -22.5t-27 -35t-10 -45.5q0 -23 9 -42.5t25 -34t37.5 -23t46.5 -8.5t47 8.5t38.5 23t26 34t9.5 42.5zM123 673h51v-51
h-51v51zM240 672h51v-51h-51v51z" />
    <glyph glyph-name="edieresis" unicode="&#xeb;" horiz-adv-x="456" 
d="M239 32q16 0 33.5 3.5t35 9t34 14.5t20.5 11l-14 33l31 15l31 -69q-50 -31 -80 -41t-64 -16h-1q-6 -1 -12.5 -1h-13.5q-55 0 -91.5 18.5t-61.5 51t-39.5 76t-17.5 93.5v19q0 53 9 103.5t36 85.5t70 52t84 17q42 0 85 -12.5t71 -48t41.5 -80t5.5 -112.5l-6 -24h-353
q2 -42 13 -78t30 -62.5t48.5 -42t75.5 -15.5zM385 271q11 54 -1 88t-34.5 61.5t-56.5 35.5t-65 8q-30 0 -64 -11.5t-58 -44t-28.5 -66t-5.5 -71.5h313zM135 677h56v-56h-56v56zM248 678h56v-56h-56v56z" />
    <glyph glyph-name="odieresis" unicode="&#xf6;" horiz-adv-x="527" 
d="M22 247q0 54 14 104.5t46 85.5t79.5 52t95.5 17t93 -17.5t76.5 -52.5t47 -85t15.5 -104q0 -53 -14 -104t-45.5 -86t-78 -51t-94.5 -16t-95.5 16t-79.5 51t-46 86t-14 104zM64 247q0 -44 10.5 -88t37 -73t66 -41.5t79.5 -12.5q39 0 78 12.5t64.5 41.5t36 73t10.5 88
q0 45 -12 87.5t-37.5 72t-63 43.5t-76.5 14q-40 0 -79.5 -13.5t-66 -43t-37 -72.5t-10.5 -88zM176 677h56v-56h-56v56zM289 678h56v-56h-56v56z" />
    <glyph glyph-name="udieresis" unicode="&#xfc;" horiz-adv-x="450" 
d="M355 46v24q-23 -35 -59 -57t-79 -22q-35 0 -65 14.5t-52.5 39.5t-35.5 58.5t-14 71.5l-3 5v318h41v-318l2 -5q1 -29 12 -54.5t29 -45t42 -30.5t51 -11q25 0 47.5 10t40 27t29 40t14.5 49v340h42l2 -500h-43zM132 677h56v-56h-56v56zM245 678h56v-56h-56v56z" />
    <glyph glyph-name="ydieresis" unicode="&#xff;" horiz-adv-x="535" 
d="M62 -123l23 -3l-3 -30q43 -6 73 6t56 83l40 99l-193 467h45l169 -415l166 415h45l-192 -464l-44 -117l-2 -9q-32 -79 -70.5 -94t-85.5 -15q-16 0 -36 5zM185 677h56v-56h-56v56zM298 678h56v-56h-56v56z" />
    <glyph glyph-name="idieresis" unicode="&#xef;" horiz-adv-x="177" 
d="M65 500h41l1 -500h-41zM19 672h51v-51h-51v51zM108 672h51v-51h-51v51z" />
    <glyph glyph-name="tilde" unicode="&#x2dc;" horiz-adv-x="334" 
d="M154 597q-23 10 -52 10q-36 0 -58 -14l-12 30q30 16 70 16q20 0 35 -4.5t28.5 -10t28 -10t34.5 -4.5q36 0 58 14l11 -30q-29 -16 -69 -16q-44 0 -74 19z" />
    <glyph glyph-name="ntilde" unicode="&#xf1;" horiz-adv-x="433" 
d="M205 604q-17 6 -39 6t-40 -6.5t-31 -15.5l-14 29q16 11 39 17.5t49 6.5q14 0 25 -2.5t21 -6t20.5 -6t23.5 -2.5q21 0 41.5 6t31.5 16l15 -29q-17 -11 -40.5 -18t-48.5 -7q-31 0 -53 12zM81 425v-27q24 38 60 58.5t79 20.5q35 0 65.5 -14.5t53 -39t36 -58t14.5 -71.5
l3 -294h-42l-1 294q-1 30 -12 55.5t-29 44.5t-42 30t-51 11q-25 0 -47.5 -9.5t-40.5 -26.5t-30 -40t-16 -50l1 -309h-42q4 497 2 499h39v-74z" />
    <glyph glyph-name="otilde" unicode="&#xf5;" horiz-adv-x="513" 
d="M22 247q0 54 14 104.5t46 85.5t79.5 52t95.5 17t93 -17.5t76.5 -52.5t47 -85t15.5 -104q0 -53 -14 -104t-45.5 -86t-78 -51t-94.5 -16t-95.5 16t-79.5 51t-46 86t-14 104zM64 247q0 -44 10.5 -88t37 -73t66 -41.5t79.5 -12.5q39 0 78 12.5t64.5 41.5t36 73t10.5 88
q0 45 -12 87.5t-37.5 72t-63 43.5t-76.5 14q-40 0 -79.5 -13.5t-66 -43t-37 -72.5t-10.5 -88zM251 597q-23 10 -52 10q-36 0 -58 -14l-12 30q30 16 70 16q20 0 35 -4.5t28.5 -10t28 -10t34.5 -4.5q36 0 58 14l11 -30q-29 -16 -69 -16q-44 0 -74 19z" />
    <glyph glyph-name="oslash" unicode="&#xf8;" horiz-adv-x="513" 
d="M22 247q0 54 18.5 101t50.5 82t75 55.5t91 20.5q49 0 91.5 -21.5t74.5 -57.5l-32 -28q-26 30 -60.5 47.5t-73.5 17.5q-40 0 -75 -17t-61.5 -46.5t-41.5 -69t-15 -84.5q0 -29 6.5 -55.5t17.5 -49.5l-32 -28q-34 60 -34 133zM446 247q0 34 -8.5 64.5t-24.5 56.5l33 28
q20 -32 31.5 -69.5t11.5 -79.5q0 -53 -18.5 -99.5t-50 -81.5t-73.5 -55.5t-90 -20.5q-54 0 -100.5 24.5t-78.5 66.5l31 27q26 -35 64.5 -55.5t83.5 -20.5q39 0 73.5 17t60 46t40.5 68.5t15 83.5zM40 47l-24 32l440 379l27 -33z" />
    <glyph glyph-name="fi" unicode="&#xfb01;" horiz-adv-x="505" 
d="M290 637l-13 4l4 12q-7 1 -11 1h-13q-22 -1 -41 -12t-33.5 -30t-22.5 -44t-8 -53v-26h119l1 -489h-41l-1 446h-78l1 -446h-39l-1 446h-57v43h55q1 0 1 7q0 2 -0.5 5.5t-0.5 6.5v7v12q2 34 14 64.5t31.5 53.5t45.5 36.5t55 13.5h24.5t23.5 -2z" />
    <glyph glyph-name="fl" unicode="&#xfb02;" horiz-adv-x="490" 
d="M262 695h43l1 -695h-43l-1 446h-110l1 -446h-39l-1 446h-59v43h57q1 0 1 7q0 2 -0.5 5.5t-0.5 6.5v7v12q-4 55 8 85.5t31.5 53t48.5 25.5t58 4h5zM152 489h110v165h-5l-44 -2t-36.5 -20t-22.5 -44t-2 -73v-26z" />
    <glyph glyph-name="exclam" unicode="!" horiz-adv-x="176" 
d="M62 691h36v-572h-36v572zM62 99q0 -1 5.5 -1h12.5h18l-1 -98h-35v99z" />
    <glyph glyph-name="exclamdown" unicode="&#xa1;" horiz-adv-x="160" 
d="M98 0h-36v572h36v-572zM98 592q0 1 -5.5 1h-12.5h-18l1 98h35v-99z" />
    <glyph glyph-name="quotesingle" unicode="'" horiz-adv-x="121" 
d="M40 691h48l1 -138h-49v138z" />
    <glyph glyph-name="parenleft" unicode="(" horiz-adv-x="260" 
d="M189 663q-31 -40 -46 -76.5t-26 -83t-17 -101t-6 -113.5q0 -65 7 -124t19.5 -108t30.5 -85.5t45 -67.5l-31 -31q-26 25 -48 67t-37.5 96t-24.5 118t-9 135q0 67 8.5 129t23.5 115t35.5 94.5t44.5 67.5z" />
    <glyph glyph-name="parenright" unicode=")" horiz-adv-x="246" 
d="M90 695q24 -26 44.5 -67.5t35.5 -94.5t23.5 -115t8.5 -129q0 -71 -9 -135t-24.5 -118t-37.5 -96t-48 -67l-34 31q30 31 48 67.5t30.5 85.5t19.5 108t7 124q0 59 -6 113.5t-17 101t-26 83t-45 73.5z" />
    <glyph glyph-name="asciitilde" unicode="~" horiz-adv-x="347" 
d="M165 305q-18 6 -40 6q-49 5 -76 -17l-17 31q17 12 41.5 16t50.5 4q15 0 27 -3t23.5 -7t23.5 -7t26 -3q23 0 44 3.5t34 14.5l14 -30q-17 -12 -40 -17t-49 -5q-36 0 -62 14z" />
    <glyph glyph-name="onequarter" unicode="&#xbc;" horiz-adv-x="382" 
d="M45 459l52 47h21v-293h-21v266l-37 -34zM295 314l-100 -175h99zM282 328h33l-1 -189h35v-20h-35v-122h-20v122h-122v20h1z" />
    <glyph glyph-name="onehalf" unicode="&#xbd;" horiz-adv-x="355" 
d="M22 455l63 52h21v-294h-21v267l-48 -39zM334 29v-28h-195v28l145 161q10 11 16 26.5t6 28.5q0 16 -7 30.5t-18 25t-26 17t-34 2.5q-16 0 -29 -4.5t-26 -18.5l22 -22l-20 -12l-40 40q19 16 45 33t51 17q23 0 43 -8.5t35 -23.5t23.5 -34.5t8.5 -41.5q0 -21 -9.5 -42
t-19.5 -34l-124 -140h153z" />
    <glyph glyph-name="bullet" unicode="&#x2022;" horiz-adv-x="209" 
d="M47 446h117v-117h-117v117z" />
    <glyph glyph-name="periodcentered" unicode="&#xb7;" horiz-adv-x="225" 
d="M70 357h89v-88h-89v88z" />
    <glyph glyph-name="degree" unicode="&#xb0;" horiz-adv-x="250" 
d="M66 594q0 -22 19 -40.5t45 -18.5q10 0 20.5 5t18 13t13 19t5.5 22q0 13 -5.5 24.5t-13 20.5t-18 14.5t-20.5 5.5q-26 0 -45 -19.5t-19 -45.5zM42 594q0 38 24.5 62t63.5 24q33 0 57.5 -24t24.5 -62q0 -17 -6.5 -31.5t-18 -26t-26.5 -18t-31 -6.5q-19 0 -35.5 6.5t-28 18
t-18 26t-6.5 31.5z" />
    <glyph glyph-name="brokenbar" unicode="&#xa6;" horiz-adv-x="131" 
d="M56 410v283h26v-283h-26zM83 303l-1 -302h-26l1 302h26z" />
    <glyph glyph-name="dagger" unicode="&#x2020;" horiz-adv-x="486" 
d="M71 560v26l159 -1l1 109h26l-1 -109l163 1v-26l-163 -1v-558h-26v558z" />
    <glyph glyph-name="threequarters" unicode="&#xbe;" horiz-adv-x="458" 
d="M51 202q8 -8 22 -14.5t31 -6.5q13 0 26.5 5.5t24 14.5t16.5 21t6 25q0 14 -5.5 25.5t-15 20.5t-21.5 15t-25 7h-22v28h22q14 1 26 6.5t21.5 14t15 19.5t5.5 23t-6 23t-16.5 19.5t-23.5 13.5t-27 5q-17 0 -30.5 -5.5t-22.5 -12.5l8 -13l-13 -8l-28 31q32 35 86 35
q21 0 39.5 -6.5t33 -19t22.5 -28t8 -34.5q0 -54 -50 -77q19 -14 33 -35.5t14 -46.5q0 -19 -8 -36.5t-22 -30t-32 -19.5t-39 -7q-27 0 -48.5 10t-36.5 28l26 33l15 -9zM371 318l-100 -175h99zM358 332h33l-1 -189h35v-20h-35v-122h-20v122h-122v20h1z" />
    <glyph glyph-name="trademark" unicode="&#x2122;" horiz-adv-x="417" 
d="M122 480h-32v174h-56v29h143v-29h-55v-174zM361 683v-203h-30v138q-11 -18 -46 -140h-16l-39 140v-138h-31v203h26l54 -156q43 133 57 156h25z" />
    <glyph glyph-name="Ydieresis" unicode="&#x178;" horiz-adv-x="681" 
d="M625 670l-265 -409l4 -261h-47v261l-263 407l38 23l241 -378h14l241 378zM246 780h56v-56h-56v56zM359 781h56v-56h-56v56z" />
    <glyph glyph-name="paragraph" unicode="&#xb6;" horiz-adv-x="382" 
d="M332 2h-40v688h40v-688zM269 0h-64l-1 362q-34 0 -86 13t-74 35.5t-35 52.5t-13 64t13 64t35 52t74 35t86 13h64zM191 654q-23 0 -65 -9.5t-57 -26t-23.5 -39t-8.5 -48.5t8.5 -48.5t23.5 -39t57 -26.5t65 -10v247z" />
    <glyph glyph-name="perthousand" unicode="&#x2030;" horiz-adv-x="833" 
 />
    <glyph glyph-name="Adieresis" unicode="&#xc4;" 
d="M459 212l-156 405l-146 -404zM286 691h35l256 -691h-44l-59 170l-332 1l-66 -171h-44zM204 790h56v-56h-56v56zM317 791h56v-56h-56v56z" />
    <glyph glyph-name="Edieresis" unicode="&#xcb;" horiz-adv-x="485" 
d="M211 260h-125v-218h357l1 -42h-399l-1 691h399v-40h-357v-349h125v-42zM148 791h56v-56h-56v56zM261 792h56v-56h-56v56z" />
    <glyph glyph-name="Idieresis" unicode="&#xcf;" horiz-adv-x="138" 
d="M92 0h-42l-1 691h42zM-18 790h56v-56h-56v56zM95 791h56v-56h-56v56z" />
    <glyph glyph-name="Odieresis" unicode="&#xd6;" horiz-adv-x="690" 
d="M543 578q-35 39 -88 56.5t-108 17.5q-56 0 -111 -18t-92 -59.5t-52.5 -103.5t-15.5 -126q0 -65 16 -126.5t52.5 -103.5t91 -61.5t111.5 -19.5q58 0 112.5 20t91 62t53.5 103t17 126q0 68 -18.5 129.5t-59.5 103.5zM573 79q-43 -47 -102.5 -67.5t-123.5 -20.5
q-63 0 -125 22t-105 69.5t-63.5 117.5t-20.5 145q0 73 19 142.5t62 117t105.5 69t127.5 21.5q67 0 129 -23.5t104 -70.5t61.5 -115t19.5 -141q0 -78 -21 -148t-67 -118zM251 791h56v-56h-56v56zM364 792h56v-56h-56v56z" />
    <glyph glyph-name="Udieresis" unicode="&#xdc;" horiz-adv-x="598" 
d="M94 173q2 -29 19.5 -54.5t43 -44t63.5 -29.5t81 -11q41 0 78 11t62 29.5t42 44t19 54.5v518h42v-518q-2 -37 -22 -70t-50.5 -58t-75.5 -39.5t-95 -14.5q-52 0 -98 14.5t-77.5 39.5t-52.5 58t-24 70v518h45v-518zM205 790h56v-56h-56v56zM318 791h56v-56h-56v56z" />
    <glyph glyph-name="Icircumflex" unicode="&#xce;" horiz-adv-x="138" 
d="M92 0h-42l-1 691h42z" />
    <glyph glyph-name="Iacute" unicode="&#xcd;" horiz-adv-x="154" 
d="M92 0h-42l-1 691h42zM115 742l-43 2l66 87h48z" />
    <glyph glyph-name="Igrave" unicode="&#xcc;" horiz-adv-x="131" 
d="M100 0h-42l-1 691h42zM-20 831l40 30l101 -96l-32 -21z" />
    <glyph glyph-name="Ntilde" unicode="&#xd1;" horiz-adv-x="537" 
d="M90 691l353 -607v607h42l1 -691h-42l-354 610l1 -610h-41l-1 691h41zM256 755q-23 10 -52 10q-36 0 -58 -14l-12 30q30 16 70 16q20 0 35 -4.5t28.5 -10t28 -10t34.5 -4.5q36 0 58 14l11 -30q-29 -16 -69 -16q-44 0 -74 19z" />
    <glyph glyph-name="onesuperior" unicode="&#xb9;" horiz-adv-x="263" 
d="M72 617l90 74h42v-300h-42v246l-60 -49z" />
    <glyph glyph-name="plus" unicode="+" horiz-adv-x="452" 
d="M248 133h-42v140h-138v42h138v139h42v-139h140v-42h-140v-140z" />
    <glyph glyph-name="hyphen" unicode="-" horiz-adv-x="421" 
d="M55 273v42h318v-42h-318z" />
    <glyph glyph-name="fraction" unicode="&#x2044;" horiz-adv-x="382" 
d="M91 0l-39 16l245 675l44 -13z" />
    <glyph glyph-name="slash" unicode="/" horiz-adv-x="378" 
d="M91 0l-39 16l245 675l42 -13z" />
    <glyph glyph-name="ampersand" unicode="&#x26;" horiz-adv-x="597" 
d="M248 0q-45 0 -84.5 15t-67 41t-43 60t-15.5 72q0 57 38.5 97.5t121.5 77.5l26 12l-18 21q-25 27 -40 47.5t-23 46t-10.5 39.5t-2.5 27q0 26 11 51t31.5 44.5t49 31.5t64.5 12q32 0 59 -10.5t46.5 -28.5t30 -42t10.5 -51q0 -44 -29.5 -91t-95.5 -83l-22 -12l165 -188
l14 28q10 19 14 28.5l10 23.5l-40 17l15 35l83 -30q-12 -38 -28 -73.5t-33 -60.5l-2 -20l1 -3q9 -14 15.5 -23t21.5 -24l44 -45l-22 -30q-53 51 -76 77l-15 18l-16 -18q-39 -45 -86.5 -67.5t-101.5 -21.5zM383 561q0 44 -28 74t-74 30q-21 0 -39.5 -8t-33 -21.5t-22.5 -31.5
t-8 -39q2 -46 39 -106l50 -58l15 8q30 17 49.5 33t31 40.5t16 41.5t4.5 37zM225 342q-74 -24 -104 -64t-30 -85q0 -28 11 -56t31.5 -50.5t50 -36.5t63.5 -14q22 0 46 7t46 19.5t41 30.5t33 39l8 12l-180 208z" />
    <glyph glyph-name="Otilde" unicode="&#xd5;" horiz-adv-x="690" 
d="M543 578q-35 39 -88 56.5t-108 17.5q-56 0 -111 -18t-92 -59.5t-52.5 -103.5t-15.5 -126q0 -65 16 -126.5t52.5 -103.5t91 -61.5t111.5 -19.5q58 0 112.5 20t91 62t53.5 103t17 126q0 68 -18.5 129.5t-59.5 103.5zM573 79q-43 -47 -102.5 -67.5t-123.5 -20.5
q-63 0 -125 22t-105 69.5t-63.5 117.5t-20.5 145q0 73 19 142.5t62 117t105.5 69t127.5 21.5q67 0 129 -23.5t104 -70.5t61.5 -115t19.5 -141q0 -78 -21 -148t-67 -118zM332 756q-23 10 -52 10q-36 0 -58 -14l-12 30q30 16 70 16q20 0 35 -4.5t28.5 -10t28 -10t34.5 -4.5
q36 0 58 14l11 -30q-29 -16 -69 -16q-44 0 -74 19z" />
    <glyph glyph-name="Eth" unicode="&#xd0;" horiz-adv-x="653" 
d="M57 274v42h54v375h227q50 -1 101.5 -28t84 -73.5t51.5 -109t19 -133.5t-18.5 -133.5t-51 -109t-83.5 -74t-101 -28.5l1 -2h-229l-1 274h-54zM153 649v-333l126 -2v-42l-126 2v-232h187v2q41 1 84.5 25.5t70 65.5t42 95.5t15.5 116.5q0 61 -15.5 116t-42.5 96t-70.5 65
t-85.5 25h-185z" />
    <glyph glyph-name="plusminus" unicode="&#xb1;" horiz-adv-x="452" 
d="M248 326h-42v134h-127v42h127v125h42v-125h125v-42h-125v-134zM78 154v42h294v-42h-294z" />
    <glyph glyph-name="asterisk" unicode="*" horiz-adv-x="471" 
d="M257 432h-42v77l-54 -54l-30 29l54 56h-75v41h76l-53 53l29 30l53 -53v80h42v-80l58 55l30 -29l-58 -55h78v-42h-78l58 -57l-29 -29l-59 56v-78z" />
    <glyph glyph-name="multiply" unicode="&#xd7;" horiz-adv-x="367" 
d="M82 178l-30 29l95 108l-94 106l29 30l95 -107l95 107l30 -29l-95 -107l95 -108l-29 -29l-96 107z" />
    <glyph glyph-name="minus" unicode="&#x2212;" horiz-adv-x="417" 
d="M50 273v42h323v-42h-323z" />
    <glyph glyph-name="underscore" unicode="_" horiz-adv-x="513" 
d="M34 0l-1 42h438l1 -42h-438z" />
    <glyph glyph-name="backslash" unicode="\" horiz-adv-x="371" 
d="M49 678l40 13l250 -678l-42 -13z" />
    <glyph glyph-name="endash" unicode="&#x2013;" horiz-adv-x="416" 
d="M51 273v42h324v-42h-324z" />
    <glyph glyph-name="emdash" unicode="&#x2014;" horiz-adv-x="532" 
d="M47 258v42h447v-42h-447z" />
    <glyph glyph-name="divide" unicode="&#xf7;" horiz-adv-x="425" 
d="M177 221h64v-64h-64v64zM177 433h64v-64h-64v64zM45 273v42h325v-42h-325z" />
    <glyph glyph-name="ellipsis" unicode="&#x2026;" horiz-adv-x="435" 
d="M42 64h64l1 -64h-64zM187 64h64l1 -64h-64zM332 64h64l1 -64h-64z" />
    <glyph glyph-name="at" unicode="@" horiz-adv-x="754" 
d="M510 185q11 0 26.5 7.5t31.5 21t31 32t26 39.5q6 12 10.5 29t8 35.5t5.5 36t2 29.5q0 46 -18.5 88t-52 73t-80.5 49.5t-104 18.5q-64 0 -118.5 -23.5t-94.5 -65.5t-62.5 -99t-22.5 -124q0 -65 21 -117t60.5 -88t96.5 -55t130 -19q91 0 154.5 31.5t93.5 76.5l2 2h63l-5 -9
q-16 -30 -44.5 -57.5t-67.5 -48.5t-88 -34t-107 -13q-79 0 -145 21t-113.5 62t-74 101.5t-26.5 140.5q0 78 25 145.5t71 117t111 78t144 28.5q60 0 114.5 -19t96.5 -55t67 -88t25 -119q0 -45 -15 -91.5t-41.5 -85t-63 -65t-80.5 -31.5q-8 0 -18.5 1.5t-21 4.5t-19.5 8.5
t-15 15.5q-35 -33 -84 -33q-26 0 -49.5 10t-40.5 28t-27 41.5t-10 50.5q0 28 10.5 46t28 35t41.5 27t51 10h80v12v-14q0 22 -1.5 42.5t-6.5 36.5t-14.5 25.5t-30.5 18t-48 1t-43 -15.5l19 -28l-21 -19l-46 58q43 41 80.5 49t63.5 -1t42 -21.5t26.5 -33t15.5 -47t6 -56.5
l1 13q-1 -23 -1 -49q-1 -22 -1 -43v-48q0 -14 -2 -28.5t0.5 -26t11.5 -19t31 -7.5zM434 346h-86q-39 0 -67 -25t-28 -53q0 -38 26.5 -64t64.5 -26q37 0 63.5 26t26.5 64v78z" />
    <glyph glyph-name="yen" unicode="&#xa5;" horiz-adv-x="681" 
d="M196 191l122 1v38l-122 -1v44l122 1v39l-264 356l38 22l246 -338l250 338l44 -19l-271 -359v-39h125v-44h-125v-38h125v-44h-125l1 -148h-43l-1 148l-122 -1v44z" />
    <glyph glyph-name="sterling" unicode="&#xa3;" horiz-adv-x="556" 
d="M200 258v-216h312l1 -42h-354l-1 258h-113v42h113v391h42v-391h149v-42h-149z" />
    <glyph glyph-name="thorn" unicode="&#xfe;" horiz-adv-x="517" 
d="M104 447q27 17 65 28t83 11q50 -1 94 -21.5t74 -54t45.5 -70t15.5 -89.5q0 -54 -16 -91.5t-45.5 -69t-73.5 -52t-94 -20.5q-46 0 -82 12t-67 27v-253h-41v888h42v-245zM104 122q-1 -12 10 -23t31.5 -19.5t48 -13.5t58.5 -6q40 1 76 18.5t60 43t37 55t13 73.5
q0 43 -12.5 72t-37 57.5t-60.5 46t-76 17.5q-29 0 -55 -4t-46.5 -11.5t-33.5 -17.5t-16 -21z" />
    <glyph glyph-name="Oslash" unicode="&#xd8;" horiz-adv-x="690" 
d="M561 88q-43 -47 -98.5 -72t-119.5 -25q-26 0 -51 5t-50 14l-8 -22l-36 12l9 27q-40 20 -80 51.5t-63.5 72.5t-31 91t-7.5 103q4 73 23 141.5t62 116t105.5 70t127.5 22.5q51 0 102 -18l9 26l37 -11l-11 -30q97 -40 143.5 -122.5t40.5 -194.5q-7 -78 -32 -143.5
t-71 -113.5zM502 604l-37 17l-209 -571q42 -16 87 -16q58 0 108.5 24.5t87 66.5t57.5 98.5t28 121.5q6 75 -14.5 126t-53.5 90q-17 20 -54 43zM343 652q-56 0 -111 -19t-92 -60.5t-52.5 -102.5t-19.5 -125q0 -46 5 -89t24.5 -79t54.5 -64t69 -47l209 570q-43 16 -87 16z" />
    <glyph glyph-name="daggerdbl" unicode="&#x2021;" horiz-adv-x="408" 
d="M48 464h297v-44h-297v44zM48 297h297v-44h-297v44zM177 0l-1 691h44l1 -691h-44z" />
    <glyph glyph-name="logicalnot" unicode="&#xac;" horiz-adv-x="662" 
d="M609 178h-42v167h-516v42h558v-209z" />
    <glyph glyph-name="guilsinglright" unicode="&#x203a;" horiz-adv-x="343" 
d="M321 248l-244 -226l-30 31l215 195l-215 201l31 29z" />
    <glyph glyph-name="guillemotright" unicode="&#xbb;" horiz-adv-x="524" 
d="M321 278l-221 -246l-32 28l194 213l-233 177l28 32zM491 278l-221 -246l-32 28l194 213l-233 177l28 32z" />
    <glyph glyph-name="greater" unicode="&#x3e;" horiz-adv-x="336" 
d="M312 248l-244 -229l-30 31l215 198l-215 205l31 29z" />
    <glyph glyph-name="less" unicode="&#x3c;" horiz-adv-x="330" 
d="M271 483l31 -29l-215 -206l215 -200l-30 -31l-244 231z" />
    <glyph glyph-name="Thorn" unicode="&#xde;" horiz-adv-x="535" 
d="M104 447q27 17 65 28t83 11q50 -1 94 -21.5t74 -54t45.5 -70t15.5 -89.5q0 -54 -16 -91.5t-45.5 -69t-73.5 -52t-94 -20.5q-46 0 -82 12t-67 27v-253h-41v888h42v-245zM104 122q-1 -12 10 -23t31.5 -19.5t48 -13.5t58.5 -6q40 1 76 18.5t60 43t37 55t13 73.5
q0 43 -12.5 72t-37 57.5t-60.5 46t-76 17.5q-29 0 -55 -4t-46.5 -11.5t-33.5 -17.5t-16 -21z" />
    <glyph glyph-name="guilsinglleft" unicode="&#x2039;" horiz-adv-x="352" 
d="M290 478l31 -29l-215 -201l215 -195l-30 -31l-244 226z" />
    <glyph glyph-name="asciicircum" unicode="^" horiz-adv-x="551" 
d="M277 691l240 -222l-31 -30l-209 193l-214 -193l-29 31z" />
    <glyph glyph-name="circumflex" unicode="&#x2c6;" horiz-adv-x="268" 
d="M138 674l108 -107l-26 -25l-82 83l-83 -83l-24 26z" />
    <glyph glyph-name="caron" unicode="&#x2c7;" horiz-adv-x="276" 
d="M139 542l-108 107l26 25l82 -83l83 83l24 -26z" />
    <glyph glyph-name="Lslash" unicode="&#x141;" horiz-adv-x="570" 
d="M385 691h45h-45zM90 -3h-46l162 313v381h42v-266l137 266h45l-182 -365v-284h285l1 -42h-327l-1 215z" />
    <glyph glyph-name="Zcaron" unicode="&#x17d;" horiz-adv-x="548" 
d="M114 42h403l-1 -42h-448h-29l404 649l-405 -2v42l444 2h35zM272 733l-108 107l26 25l82 -83l83 83l24 -26z" />
    <glyph glyph-name="zcaron" unicode="&#x17e;" horiz-adv-x="452" 
d="M45 43l312 414h-321v43h376v-43l-312 -414l322 3l1 -43l-377 -3zM225 542l-108 107l26 25l82 -83l83 83l24 -26z" />
    <glyph glyph-name="florin" unicode="&#x192;" horiz-adv-x="328" 
d="M284 625l-20 8q8 21 7 21h-14q-22 -1 -41 -12t-33.5 -30t-22.5 -44t-8 -53v-216h132v-43h-132l1 -256h-39q-1 84 -1 166v90h-64v43h62q1 0 1 197q0 2 -0.5 5.5t-0.5 6.5v7v12q2 34 14 64.5t31.5 53.5t45.5 36.5t55 13.5h24.5t23.5 -2z" />
    <glyph glyph-name="Scaron" unicode="&#x160;" horiz-adv-x="485" 
d="M104 130l19 -23l-24 -19q19 -20 51.5 -37.5t85.5 -17.5q32 0 61.5 10.5t51.5 28.5t35 43t13 54t-11.5 54.5t-32 46t-48 29.5t-59.5 13h-3q-43 4 -79.5 20.5t-63 42t-41.5 62.5t-15 73q0 39 16.5 73t45.5 58.5t68 38.5t83 14q57 0 102 -20t77 -57l-50 -51l-24 21l21 22
q-19 17 -50 31.5t-76 14.5q-33 0 -63.5 -11t-54 -30t-37.5 -44.5t-14 -55.5q0 -29 12 -59.5t33.5 -51t51 -34t63.5 -16.5q42 -6 77.5 -18.5t61.5 -37.5t40.5 -57t14.5 -67q0 -38 -16.5 -71.5t-44.5 -58t-66 -38.5t-81 -14q-61 0 -110.5 26t-78.5 68zM241 733l-108 107l26 25
l82 -83l83 83l24 -26z" />
    <glyph glyph-name="scaron" unicode="&#x161;" horiz-adv-x="417" 
d="M329 399l-22 17l15 16q-17 12 -44 21.5t-64 9.5q-51 0 -85.5 -32.5t-34.5 -70.5q0 -18 9 -35t27.5 -29.5t39.5 -16t48 -7.5q34 -5 63 -14.5t50 -29t32.5 -44t11.5 -51.5q0 -30 -13 -54t-35.5 -46t-52 -31.5t-62.5 -9.5q-47 0 -90.5 17t-69.5 48l36 56l28 -18l-15 -27
q16 -12 43 -23.5t65 -11.5q52 0 88 29.5t36 70.5q0 19 -9 36.5t-25.5 32.5t-39 21t-49.5 10q-35 5 -64 10.5t-50 25t-33 43.5t-12 50q0 28 13.5 60t36.5 48.5t53 25.5t64 9q47 0 88.5 -17.5t67.5 -44.5zM208 542l-108 107l26 25l82 -83l83 83l24 -26z" />
    <glyph glyph-name="ecircumflex" unicode="&#xea;" horiz-adv-x="456" 
d="M239 32q16 0 33.5 3.5t35 9t34 14.5t20.5 11l-14 33l31 15l31 -69q-50 -31 -80 -41t-64 -16h-1q-6 -1 -12.5 -1h-13.5q-55 0 -91.5 18.5t-61.5 51t-39.5 76t-17.5 93.5v19q0 53 9 103.5t36 85.5t70 52t84 17q42 0 85 -12.5t71 -48t41.5 -80t5.5 -112.5l-6 -24h-353
q2 -42 13 -78t30 -62.5t48.5 -42t75.5 -15.5zM385 271q11 54 -1 88t-34.5 61.5t-56.5 35.5t-65 8q-30 0 -64 -11.5t-58 -44t-28.5 -66t-5.5 -71.5h313zM226 674l108 -107l-26 -25l-82 83l-83 -83l-24 26z" />
    <glyph glyph-name="Atilde" unicode="&#xc3;" 
d="M299 786q-17 6 -38 6q-22 0 -40.5 -5.5t-30.5 -14.5l-15 28q17 11 38.5 17.5t47.5 6.5q14 0 25.5 -3l22 -6l21 -6t23.5 -3q23 0 42.5 5t31.5 15l14 -28q-35 -24 -86 -24q-32 0 -56 12zM459 212l-156 405l-146 -404zM286 691h35l256 -691h-44l-59 170l-332 1l-66 -171h-44
z" />
    <glyph glyph-name="AE" unicode="&#xc6;" horiz-adv-x="1081" 
d="M541 651h-179l-123 -354h293zM549 691h382v-40h-357v-262h151v-42h-151v-305h357l1 -42h-399l-1 255h-308l-98 -255h-44l254 691h213z" />
    <glyph glyph-name="acircumflex" unicode="&#xe2;" horiz-adv-x="406" 
d="M322 40q-23 -23 -54 -36.5t-67 -13.5q-33 0 -62.5 12t-51 32.5t-34.5 48t-13 58.5q0 33 13.5 61t36.5 48.5t53.5 31.5t64.5 11l50 -5l37 -11l25 -20l2 58q0 30 -7.5 57t-21.5 47t-33.5 32t-43.5 13h-1q-54 0 -116 -19l8 -27l-28 -8l-20 66q89 30 156 30h1q29 -1 55 -14.5
t46 -36.5t32.5 -54t14.5 -66v-10q-1 -25 -1 -53q-1 -24 -1 -54.5v-61.5q0 -29 0.5 -56t1.5 -100h-41zM320 216l-27 20l-43 13l-42 3q-26 0 -48.5 -8t-39.5 -22.5t-27 -35t-10 -45.5q0 -23 9 -42.5t25 -34t37.5 -23t46.5 -8.5t47 8.5t38.5 23t26 34t9.5 42.5zM201 674
l108 -107l-26 -25l-82 83l-83 -83l-24 26z" />
    <glyph glyph-name="germandbls" unicode="&#xdf;" horiz-adv-x="520" 
d="M256 651h-161v-262h179q30 1 61 11.5t50 28t30 41.5t11 51q0 25 -11 48t-30 41t-50 28.5t-61 12.5h-18zM96 -147h-42l-1 838h42h179q38 -1 77 -15t63.5 -37t39 -53.5t14.5 -64.5q0 -51 -27 -91.5t-72 -63.5q52 -22 82.5 -68t30.5 -102q0 -39 -15 -74t-41.5 -61.5t-68 -42
t-83.5 -16.5l-84 -2v42h84q32 1 66 14t55 34t33 48t12 58q0 30 -12.5 56.5t-35 47t-60 33t-76.5 14.5h-161z" />
    <glyph glyph-name="guillemotleft" unicode="&#xab;" horiz-adv-x="532" 
d="M463 477l28 -32l-233 -172l194 -210l-32 -28l-221 243zM293 477l28 -32l-233 -172l194 -210l-32 -28l-221 243z" />
    <glyph glyph-name="ucircumflex" unicode="&#xfb;" horiz-adv-x="450" 
d="M355 46v24q-23 -35 -59 -57t-79 -22q-35 0 -65 14.5t-52.5 39.5t-35.5 58.5t-14 71.5l-3 5v318h41v-318l2 -5q1 -29 12 -54.5t29 -45t42 -30.5t51 -11q25 0 47.5 10t40 27t29 40t14.5 49v340h42l2 -500h-43zM223 674l108 -107l-26 -25l-82 83l-83 -83l-24 26z" />
    <glyph glyph-name="ocircumflex" unicode="&#xf4;" horiz-adv-x="513" 
d="M22 247q0 54 14 104.5t46 85.5t79.5 52t95.5 17t93 -17.5t76.5 -52.5t47 -85t15.5 -104q0 -53 -14 -104t-45.5 -86t-78 -51t-94.5 -16t-95.5 16t-79.5 51t-46 86t-14 104zM64 247q0 -44 10.5 -88t37 -73t66 -41.5t79.5 -12.5q39 0 78 12.5t64.5 41.5t36 73t10.5 88
q0 45 -12 87.5t-37.5 72t-63 43.5t-76.5 14q-40 0 -79.5 -13.5t-66 -43t-37 -72.5t-10.5 -88zM255 674l108 -107l-26 -25l-82 83l-83 -83l-24 26z" />
    <glyph glyph-name="eth" unicode="&#xf0;" horiz-adv-x="489" 
d="M38 488q0 43 16.5 80.5t44.5 66t66 45t81 16.5t81 -16t66 -43t44.5 -63.5t18.5 -78.5v-3q3 -41 3 -84v-84q0 -40 -2.5 -78.5t-9.5 -74.5q-8 -39 -28 -72t-49 -56.5t-65.5 -36.5t-76.5 -13q-50 0 -106 26.5t-95 79.5l67 64l29 -28l-37 -32q20 -33 65 -50t84 -17
q33 0 62 11t52 30.5t38.5 46.5t22.5 58q5 37 8 76.5t3 81.5v34q-28 -42 -74 -66.5t-103 -24.5q-41 0 -78 15.5t-65 42t-45 62.5t-18 78v7zM78 483q2 -33 15.5 -62t36 -50.5t52 -34t62.5 -12.5q36 0 67 13t54 35.5t36 53t13 65.5q0 33 -13.5 62.5t-37 51.5t-53.5 35t-63 13
q-36 0 -66.5 -14t-53.5 -37t-36 -54t-13 -65z" />
    <glyph glyph-name="icircumflex" unicode="&#xee;" horiz-adv-x="177" 
d="M65 500h41l1 -500h-41zM87 674l95 -94l-26 -25l-69 70l-68 -70l-24 26z" />
    <glyph glyph-name="dotlessi" unicode="&#x131;" horiz-adv-x="343" 
d="M48 51v42h169v525h42v-567h-211z" />
    <glyph glyph-name="numbersign" unicode="#" horiz-adv-x="714" 
d="M27 211h133l76 229h-127v44h143l58 160h45l-57 -160h240l58 160h45l-57 -160l100 1v-45h-116l-77 -229h117v-44h-133l-55 -167h-46l56 167h-241l-55 -167h-46l56 167l-117 1v43zM205 211h241l76 229h-240z" />
    <glyph glyph-name="atilde" unicode="&#xe3;" horiz-adv-x="406" 
d="M187 574q-17 5 -35 5q-21 0 -41.5 -6t-31.5 -16l-16 28q16 11 39 18.5t49 7.5t44.5 -8t41.5 -8t44 6t34 17l14 -28q-16 -13 -39.5 -20t-48.5 -7q-30 0 -54 11zM322 40q-23 -23 -54 -36.5t-67 -13.5q-33 0 -62.5 12t-51 32.5t-34.5 48t-13 58.5q0 33 13.5 61t36.5 48.5
t53.5 31.5t64.5 11l50 -5l37 -11l25 -20l2 58q0 30 -7.5 57t-21.5 47t-33.5 32t-43.5 13h-1q-54 0 -116 -19l8 -27l-28 -8l-20 66q89 30 156 30h1q29 -1 55 -14.5t46 -36.5t32.5 -54t14.5 -66v-10q-1 -25 -1 -53q-1 -24 -1 -54.5v-61.5q0 -29 0.5 -56t1.5 -100h-41zM320 216
l-27 20l-43 13l-42 3q-26 0 -48.5 -8t-39.5 -22.5t-27 -35t-10 -45.5q0 -23 9 -42.5t25 -34t37.5 -23t46.5 -8.5t47 8.5t38.5 23t26 34t9.5 42.5z" />
    <glyph glyph-name="dotaccent" unicode="&#x2d9;" horiz-adv-x="148" 
d="M42 654h64v-64h-64v64z" />
    <glyph glyph-name="bracketleft" unicode="[" horiz-adv-x="210" 
d="M148 68q-3 -34 40 -26v-42q-30 0 -40.5 3.5t-20 9.5t-15.5 14.5t-6 19.5v242q0 20 -12.5 32.5t-31.5 12.5h-20v42h20q19 0 31.5 13t12.5 32v225v2v3q3 18 20.5 29t58.5 10v-43q-41 8 -36 -37v-201q-5 -13 -16.5 -23t-25.5 -24v-11q14 -17 25.5 -25.5t16.5 -23.5z" />
    <glyph glyph-name="bracketright" unicode="]" horiz-adv-x="183" 
d="M60 622q3 34 -41 26l1 42q30 0 40.5 -3.5t20 -9.5t15.5 -14.5t6 -19.5v-242q0 -20 12.5 -32.5t31.5 -12.5h20v-42h-20q-19 0 -31.5 -13t-12.5 -32v-225v-2v-3q-3 -18 -20.5 -29t-58.5 -10v43q41 -8 36 37v201q5 13 16.5 23t25.5 24v11q-14 17 -25.5 25.5t-16.5 23.5z" />
    <glyph glyph-name="lslash" unicode="&#x142;" horiz-adv-x="380" 
d="M171 691h42v-237l98 169h48l-146 -255l1 -368h-42l-1 228l-92 -160h-52l144 248v375z" />
    <glyph glyph-name="registered" unicode="&#xae;" horiz-adv-x="833" 
 />
    <glyph glyph-name="percent" unicode="%" horiz-adv-x="382" 
d="M271 132v-33q-15 -8 -15 -26q0 -13 8.5 -21.5t21.5 -8.5t21.5 8t8.5 22q0 20 -18 28v15q0 6 0.5 10.5t0.5 5.5q23 -5 35.5 -21t12.5 -37q0 -25 -17.5 -42.5t-42.5 -17.5t-42.5 17.5t-17.5 42.5q0 20 12.5 36.5t31.5 21.5zM108 556v33q15 8 15 26q0 13 -8.5 21.5
t-21.5 8.5t-21.5 -8t-8.5 -22q0 -20 18 -28q-1 -8 -1 -15v-16q-23 5 -35.5 21t-12.5 37q0 25 17.5 42.5t42.5 17.5t42.5 -17.5t17.5 -42.5q0 -20 -12.5 -36.5t-31.5 -21.5zM91 0l-39 16l245 675l44 -13z" />
    <glyph glyph-name="glyph218" horiz-adv-x="500" 
 />
    <glyph glyph-name="Aring" unicode="&#xc5;" 
d="M459 212l-156 405l-146 -404zM286 691h35l256 -691h-44l-59 170l-332 1l-66 -171h-44z" />
    <glyph glyph-name="aring" unicode="&#xe5;" horiz-adv-x="406" 
d="M322 40q-23 -23 -54 -36.5t-67 -13.5q-33 0 -62.5 12t-51 32.5t-34.5 48t-13 58.5q0 33 13.5 61t36.5 48.5t53.5 31.5t64.5 11l50 -5l37 -11l25 -20l2 58q0 30 -7.5 57t-21.5 47t-33.5 32t-43.5 13h-1q-54 0 -116 -19l8 -27l-28 -8l-20 66q89 30 156 30h1q29 -1 55 -14.5
t46 -36.5t32.5 -54t14.5 -66v-10q-1 -25 -1 -53q-1 -24 -1 -54.5v-61.5q0 -29 0.5 -56t1.5 -100h-41zM320 216l-27 20l-43 13l-42 3q-26 0 -48.5 -8t-39.5 -22.5t-27 -35t-10 -45.5q0 -23 9 -42.5t25 -34t37.5 -23t46.5 -8.5t47 8.5t38.5 23t26 34t9.5 42.5z" />
    <glyph glyph-name="copyright" unicode="&#xa9;" horiz-adv-x="833" 
 />
    <glyph glyph-name="Ecircumflex" unicode="&#xca;" horiz-adv-x="485" 
d="M211 260h-125v-218h357l1 -42h-399l-1 691h399v-40h-357v-349h125v-42zM242 865l108 -107l-26 -25l-82 83l-83 -83l-24 26z" />
    <glyph glyph-name="Ocircumflex" unicode="&#xd4;" horiz-adv-x="709" 
d="M549 578q-35 39 -88 56.5t-108 17.5q-56 0 -111 -18t-92 -59.5t-52.5 -103.5t-15.5 -126q0 -65 16 -126.5t52.5 -103.5t91 -61.5t111.5 -19.5q58 0 112.5 20t91 62t53.5 103t17 126q0 68 -18.5 129.5t-59.5 103.5zM579 79q-43 -47 -102.5 -67.5t-123.5 -20.5
q-63 0 -125 22t-105 69.5t-63.5 117.5t-20.5 145q0 73 19 142.5t62 117t105.5 69t127.5 21.5q67 0 129 -23.5t104 -70.5t61.5 -115t19.5 -141q0 -78 -21 -148t-67 -118zM354 865l108 -107l-26 -25l-82 83l-83 -83l-24 26z" />
    <glyph glyph-name="Ucircumflex" unicode="&#xdb;" horiz-adv-x="598" 
d="M94 173q2 -29 19.5 -54.5t43 -44t63.5 -29.5t81 -11q41 0 78 11t62 29.5t42 44t19 54.5v518h42v-518q-2 -37 -22 -70t-50.5 -58t-75.5 -39.5t-95 -14.5q-52 0 -98 14.5t-77.5 39.5t-52.5 58t-24 70v518h45v-518zM298 865l108 -107l-26 -25l-82 83l-83 -83l-24 26z" />
    <glyph glyph-name="breve" unicode="&#x2d8;" horiz-adv-x="833" 
 />
    <glyph glyph-name="ring" unicode="&#x2da;" horiz-adv-x="833" 
 />
  </font>
</defs>
</svg>
