<?xml version="1.0" standalone="no"?>
<!DOCTYPE svg PUBLIC "-//W3C//DTD SVG 1.1//EN" "http://www.w3.org/Graphics/SVG/1.1/DTD/svg11.dtd" >
<svg>
<metadata>
Created by FontForge 20090622 at Tue Feb 28 15:42:21 2017
 By deploy user
Copyright (c) 2014 by Tipografia Leone. All rights reserved.
</metadata>
<defs>
<font id="UrbanElegance-Bold" horiz-adv-x="596" >
  <font-face 
    font-family="Urban Elegance"
    font-weight="700"
    font-stretch="normal"
    units-per-em="1000"
    panose-1="2 0 0 0 0 0 0 0 0 0"
    ascent="800"
    descent="-200"
    x-height="499"
    cap-height="691"
    bbox="-42 -189 999 862"
    underline-thickness="50"
    underline-position="-50"
    unicode-range="U+0020-U+FB02"
  />
<missing-glyph horiz-adv-x="257" 
 />
    <glyph glyph-name=".notdef" horiz-adv-x="257" 
 />
    <glyph glyph-name=".null" horiz-adv-x="0" 
 />
    <glyph glyph-name="nonmarkingreturn" horiz-adv-x="257" 
 />
    <glyph glyph-name="space" unicode=" " horiz-adv-x="257" 
 />
    <glyph glyph-name="space" unicode="&#xa0;" horiz-adv-x="257" 
 />
    <glyph glyph-name="e" unicode="e" horiz-adv-x="456" 
d="M232 58q14 0 30 3t30 8h-1q9 3 21 8.5t19 9.5l-13 31l54 26l39 -89q-29 -19 -51 -30.5t-37 -16.5q-29 -10 -65 -16h-26q-54 0 -92 18.5t-63.5 50.5t-39 75.5t-17.5 93.5v19q0 53 9 102.5t36 84.5q28 36 71.5 53.5t85.5 17.5t85.5 -13.5t72.5 -50.5q23 -29 36.5 -63.5
t13.5 -82.5q0 -9 -1 -21.5t-3 -27.5l-7 -31h-329q4 -35 12.5 -64t25 -50t42 -33t62.5 -12zM357 284q3 16 3 29q0 29 -10 49t-26 39q-18 23 -47 30t-55 7t-55 -10t-49 -37q-19 -25 -23.5 -51t-5.5 -56h268z" />
    <glyph glyph-name="f" unicode="f" horiz-adv-x="328" 
d="M247 630q-1 -1 -1 -3zM282 586l-45 16l5 14q-34 -5 -56.5 -38t-22.5 -78v-190h124v-68h-124q0 -60 0.5 -122t0.5 -120h-66v171v71h-61v68h72q-9 2 -10.5 45t-1.5 127v5q0 2 -0.5 3.5t-0.5 2.5v18q1 35 13.5 66.5t33 55t47.5 37.5t58 14h9q8 0 19.5 -0.5t34.5 -4.5z" />
    <glyph glyph-name="g" unicode="g" horiz-adv-x="551" 
d="M211 121h17q42 0 79.5 -13t65 -34.5t43.5 -50.5t16 -61q0 -35 -16.5 -57.5t-45.5 -45.5q-26 -21 -63 -34.5t-79 -13.5q-41 0 -78 13.5t-65 36t-44 52.5t-16 63q0 45 28.5 83t72.5 59q2 6 2.5 15t0.5 18q1 22 0.5 32t1.5 13q-34 26 -51 59.5t-17 72.5q0 37 15.5 69.5
t43 56.5t64.5 38t79 14q40 0 72 -11h112v-68h-15q15 -20 24 -45t9 -54q0 -36 -16 -68t-43.5 -56t-64 -37.5t-78.5 -13.5q-17 0 -29 2.5l-22 4.5q-7 2 -13 3t-11 1l-8 2q5 -3 7 -13v-14q-2 -16 1 -19zM91 -24q0 -20 11 -38t30 -31.5t44 -21.5t52 -8q29 0 54.5 8.5t45.5 22.5
q17 14 28 25.5t11 28.5q0 18 -11 35t-29.5 30.5t-44 21.5t-54.5 8h-21q-22 1 -42 -1t-34 -13q-18 -13 -29 -30t-11 -37zM130 328q0 -23 10.5 -42.5t29 -34.5t43 -23.5t52.5 -8.5q29 0 54 8.5t43 23.5t28.5 34.5t10.5 42.5q0 24 -10.5 44.5t-28.5 35.5t-43 23.5t-54 8.5
q-28 0 -52.5 -8.5t-43 -23.5t-29 -35.5t-10.5 -44.5z" />
    <glyph glyph-name="p" unicode="p" horiz-adv-x="506" 
d="M98 134q9 -15 44 -25.5t83 -12.5q35 1 67.5 16.5t55.5 40.5q23 26 37 52.5t14 64.5t-13.5 68.5t-36.5 50.5q-24 20 -56.5 35.5t-67.5 15.5q-27 0 -50 -3t-40 -8.5t-27 -13t-10 -16.5v-265zM98 481q26 13 57.5 20t69.5 7q50 0 94 -21t76 -48q32 -29 52 -72.5t20 -96.5
q0 -54 -20 -91.5t-51 -72.5q-32 -35 -76 -56t-95 -21q-36 0 -68 7.5t-58 19.5v-240h-67v683h66v-18z" />
    <glyph glyph-name="y" unicode="y" horiz-adv-x="535" 
d="M54 -86l51 -6l-5 -29q28 -2 48 7q24 9 45 70l36 87l-188 456h73l150 -366l74 183.5l73 182.5h74l-190 -457l-20 -53l-20 -54q-1 -2 -1.5 -5.5t-0.5 -4.5q-35 -81 -76 -99q-36 -15 -85 -15q-20 0 -50 8z" />
    <glyph glyph-name="R" unicode="R" horiz-adv-x="483" 
d="M100 229l2 -229h-69l-1 691h204q42 0 78.5 -14t63.5 -38q26 -23 47 -64t25 -104q-1 -62 -14 -98q-11 -35 -49 -68q-35 -29 -73.5 -44.5t-78.5 -15.5h-54l127 -105l125 -104l-51 -41zM101 625q0 -81 -0.5 -155t-0.5 -156h135q52 0 105 41q11 10 20 21t12 20q7 21 9 74
q-3 48 -18 76.5t-33 44.5q-18 15 -42.5 24.5t-53.5 9.5h-133z" />
    <glyph glyph-name="d" unicode="d" horiz-adv-x="534" 
d="M414 350q-9 15 -45 26t-83 11q-35 0 -66.5 -15.5t-54.5 -41.5t-35 -51.5t-12 -62.5q0 -38 12 -64.5t35 -52.5q23 -25 54 -32.5t66 -8.5q27 1 50.5 5t41 10t27.5 13.5t10 16.5v247zM415 18q-25 -11 -58 -18.5t-71 -8.5q-51 1 -93.5 13t-77.5 48q-32 35 -48.5 72.5
t-16.5 91.5q0 53 16 92.5t49 72.5t76.5 56t94.5 23q37 0 68.5 -8.5t56.5 -22.5v251h68v-576q1 -15 1 -45v-59h-65v18z" />
    <glyph glyph-name="h" unicode="h" horiz-adv-x="455" 
d="M103 682v-250q24 28 53 39.5t64 11.5q37 0 68 -15t54 -40q22 -24 36 -58.5t15 -93.5l3 -273h-68v273q-1 46 -10 68t-25 38q-15 16 -36 25t-44 9q-19 3 -37 -7.5t-33 -29t-25.5 -42.5t-14.5 -48q0 -69 0.5 -144.5t0.5 -144.5h-68v682h67z" />
    <glyph glyph-name="i" unicode="i" horiz-adv-x="177" 
d="M50 500h67l1 -500h-67zM50 630h63v-70h-63v70z" />
    <glyph glyph-name="j" unicode="j" horiz-adv-x="354" 
d="M92 -120h1h-1zM53 -77l56 -13l-2 -26q14 2 28 9.5t22 19.5q12 15 18.5 36.5t6.5 44.5v507h68v-517q-2 -35 -14.5 -65.5t-32.5 -53.5t-47 -37t-57 -15q-10 0 -17 0.5t-15 1.5q-4 1 -8.5 1.5t-22.5 0.5zM182 653h69v-68h-69v68z" />
    <glyph glyph-name="k" unicode="k" horiz-adv-x="440" 
d="M118 293l85 71l83 69l42 -50l-108 -91l184 -256l-53 -42l-183 251l-50 -42q0 -48 0.5 -102t0.5 -101h-90q16 16 19 27.5t2 28.5v624h68v-387z" />
    <glyph glyph-name="l" unicode="l" horiz-adv-x="162" 
d="M50 680h68v-680h-67z" />
    <glyph glyph-name="m" unicode="m" horiz-adv-x="739" 
d="M103 413q49 44 116 44q47 0 85 -22t61 -60q25 42 66.5 62.5t78.5 20.5q36 0 67.5 -14.5t54.5 -39.5t36.5 -57.5t14.5 -69.5l1 -275h-68l1 275q-1 22 -9.5 42.5t-23.5 36.5t-35 25t-43 9q-20 0 -38 -9t-33 -23t-26 -32t-15 -36q0 -69 -0.5 -144t-0.5 -144h-68l1 273
q-2 53 -34.5 82.5t-78.5 31.5q-41 -1 -71.5 -29.5t-38.5 -71.5v-288h-67q-2 241 -10 367t-16 134h93v-88z" />
    <glyph glyph-name="n" unicode="n" horiz-adv-x="433" 
d="M97 430q48 48 117 48q36 0 67 -14.5t54 -40t37 -59.5t15 -72l3 -292h-68l-1 292v-1q-1 25 -10.5 47t-24.5 38t-35 25t-42 9q-42 0 -73 -30.5t-39 -75.5q0 -73 0.5 -152t0.5 -152h-68q2 149 2.5 257t0.5 164q0 16 -0.5 30t-0.5 25q-1 12 -1 23h66v-69z" />
    <glyph glyph-name="o" unicode="o" horiz-adv-x="513" 
d="M14 247q0 54 14 104t46 85q33 35 80.5 52.5t95.5 17.5t93 -18t76 -53q32 -35 48 -85t16 -103q0 -51 -15 -102t-46 -87q-31 -35 -78 -51t-94 -16q-48 0 -95.5 15.5t-80.5 51.5q-32 36 -46 86t-14 103zM82 247q0 -38 10 -77t30 -65q23 -24 58 -35.5t70 -11.5t68.5 11
t54.5 36q23 26 32 64t9 78q0 41 -10.5 78t-34.5 63q-21 26 -53.5 38t-65.5 12t-69 -13t-59 -36q-20 -26 -30 -64.5t-10 -77.5z" />
    <glyph glyph-name="q" unicode="q" horiz-adv-x="513" 
d="M401 399q0 9 -10 16.5t-27.5 13t-40.5 8.5t-50 3q-36 0 -68 -15.5t-56 -35.5q-23 -19 -36 -50t-13 -69t14 -64.5t37 -52.5q23 -25 54.5 -40.5t66.5 -16.5q49 2 85.5 12t43.5 26v265zM401 499h66v-683h-67v240q-26 -12 -58.5 -19.5t-68.5 -7.5q-51 0 -94.5 20.5
t-76.5 56.5q-32 35 -51 72t-19 92q0 54 19 97t52 72q32 27 75.5 48t94.5 21q38 0 70 -7t58 -20v18z" />
    <glyph glyph-name="r" unicode="r" horiz-adv-x="279" 
d="M238 412l-44 7l1 19q-37 -8 -61.5 -38t-33.5 -70q0 -79 0.5 -165t0.5 -165h-68q1 139 1.5 243t0.5 162q0 20 -0.5 37.5t-0.5 30.5q-1 15 -1 28h67v-43q24 26 52.5 37t63.5 11q6 0 14.5 -1t25.5 -8z" />
    <glyph glyph-name="s" unicode="s" horiz-adv-x="417" 
d="M317 373l-31 33l1 13q-14 8 -33.5 13t-45.5 5q-42 0 -72 -28q-27 -24 -27 -55q0 -14 7 -27t21 -23l-1 1q14 -9 30.5 -12t35.5 -6q2 -1 5 -1.5t5 -0.5q35 -2 65 -14t51.5 -31.5t33.5 -45t12 -54.5t-13.5 -56.5t-36.5 -48.5t-54 -33t-65 -10q-48 1 -92.5 20.5t-74.5 54.5
l47 73l48 -32l-13 -26q14 -9 34.5 -16t48.5 -7q44 0 75 25h-1q29 23 29 56q0 31 -28.5 54.5t-74.5 25.5q-3 0 -7.5 1t-7.5 1q-29 4 -54.5 10.5t-46.5 24.5q-22 21 -34.5 46t-12.5 53q0 14 4 30t11 31.5t17 29t22 22.5h-1q50 36 119 36q48 0 91.5 -20.5t75.5 -52.5z" />
    <glyph glyph-name="t" unicode="t" horiz-adv-x="340" 
d="M177 680v-187h114v-68h-114q0 -104 0.5 -213t0.5 -212h-67v173v252h-65v68h63v187h68z" />
    <glyph glyph-name="u" unicode="u" horiz-adv-x="450" 
d="M327 41q-23 -23 -53 -36t-63 -13q-35 0 -65.5 14.5t-53.5 39t-37 57.5t-16 71l-3 3v321h67v-314l2 -5q1 -24 10.5 -45.5t25 -38t35 -26t42.5 -9.5q20 0 38.5 8.5t33 23.5t24.5 34.5t13 40.5v333h68l2 -500h-69z" />
    <glyph glyph-name="v" unicode="v" horiz-adv-x="500" 
d="M13 480l68 24l160 -396l80 198l79 198l66 -27l-194 -477h-61z" />
    <glyph glyph-name="w" unicode="w" horiz-adv-x="705" 
d="M465 -1l-66 5l-52 238l-77 -243l-63 5l-201 496h74l157 -388l44.5 149.5l44.5 147.5h54l58 -288l154 379h76z" />
    <glyph glyph-name="x" unicode="x" horiz-adv-x="444" 
d="M31 481l67 21l114 -183l117 183l71 -19l-145 -231l74 -119.5l73 -118.5l-70 -16l-123 193l-118 -193l-69 15l146 245z" />
    <glyph glyph-name="z" unicode="z" horiz-adv-x="452" 
d="M35 59l280 372h-289v69h383v-59l-280 -371l290 2l1 -69l-384 -3z" />
    <glyph glyph-name="A" unicode="A" 
d="M425 232l-127 333l-121 -332zM271 691h53l255 -691h-72l-57 163q-75 0 -148 0.5t-149 0.5l-64 -164h-72z" />
    <glyph glyph-name="B" unicode="B" horiz-adv-x="512" 
d="M252 0h-209l-1 691h226q40 -1 74 -15.5t59 -38.5q26 -24 41.5 -61.5t15.5 -72.5q0 -46 -15.5 -84.5t-51.5 -64.5q46 -25 63 -66.5t17 -104.5q0 -46 -14 -78t-43 -57q-29 -24 -65.5 -34t-78.5 -12zM111 624q0 -62 1 -117.5t1 -118.5h168q27 0 46.5 10t33 26.5t20.5 37.5
t8 41q0 21 -9.5 45.5t-25.5 39.5q-17 17 -38.5 25.5t-47.5 10.5h-157zM268 69q29 1 56 9t46 23q17 12 24.5 30.5t7.5 51.5q0 38 -9.5 58t-23.5 38q-14 17 -37.5 27.5t-51.5 12.5h-167q0 -66 -1 -124.5t-1 -125.5h157z" />
    <glyph glyph-name="C" unicode="C" horiz-adv-x="590" 
d="M524 549l1 1l-31 -38l-48 36l26 30q-26 18 -60.5 33t-76.5 15q-50 0 -94.5 -22t-78 -60t-53 -89.5t-19.5 -109.5q0 -57 18.5 -108.5t51 -90.5t77.5 -62t98 -23q43 0 75.5 13.5t58.5 32.5l-14 16.5l-11 13.5l50 34l63 -74q-46 -50 -102.5 -78t-119.5 -28q-62 0 -119 28
t-100.5 76t-69.5 112.5t-26 137.5q0 70 24.5 133.5t67 111.5t100 76.5t123.5 28.5q63 0 120.5 -28t103.5 -79z" />
    <glyph glyph-name="D" unicode="D" horiz-adv-x="575" 
d="M96 622v-553q48 0 95.5 1t95.5 1q18 1 38.5 5.5t43.5 14.5q22 10 39 24t28 31q23 36 25 86q1 25 1 57v58q0 57 -8 107.5t-32 87.5t-61.5 58t-74.5 22h-190zM27 691h259q51 -1 103 -28.5t85 -75.5q33 -46 45 -107.5t12 -132.5q0 -34 -1 -67t-3 -65q-2 -33 -11.5 -62.5
t-26.5 -52.5v1q-32 -48 -92 -74q-29 -12 -56 -18.5t-51 -8.5h-262z" />
    <glyph glyph-name="E" unicode="E" horiz-adv-x="485" 
d="M222 249h-120v-180h342l1 -69h-411l-1 691h411v-67h-342v-306h120v-69z" />
    <glyph glyph-name="F" unicode="F" horiz-adv-x="487" 
d="M284 247h-178q0 -60 0.5 -123.5t0.5 -123.5h-69l-1 691h411v-66h-342v-309h178v-69z" />
    <glyph glyph-name="G" unicode="G" horiz-adv-x="604" 
d="M550 87q-43 -58 -98 -77t-119 -19q-65 0 -123 28t-101 75.5t-68 111.5t-25 136q0 73 25 137t68 112t101 76t123 28q63 0 120 -28t105 -79l-72 -74l-47 39l28 28q-25 18 -58 31t-76 13q-51 0 -96.5 -22t-79 -60.5t-53 -90t-19.5 -110.5t19.5 -110.5t53 -90t79 -61
t96.5 -22.5q43 0 82.5 12t68.5 47v134h-135l-38 -46l-61 44l58 69h245v-219z" />
    <glyph glyph-name="H" unicode="H" horiz-adv-x="558" 
d="M109 247q0 -60 -0.5 -123.5t-0.5 -123.5h-69l-1 691h69l2 -375h337q0 93 -1 188t-1 187h69l1 -691h-69l1 247h-337z" />
    <glyph glyph-name="I" unicode="I" horiz-adv-x="138" 
d="M104 0h-69l-1 691h69z" />
    <glyph glyph-name="J" unicode="J" horiz-adv-x="305" 
d="M251 175q0 -18 -1 -38t-4 -39t-8.5 -36.5t-15.5 -30.5q-20 -28 -50.5 -34t-58.5 -6q-26 0 -50 15t-47 40l64 76l45 -32l-23 -28q3 -2 11 -2h7q13 0 26.5 1t19.5 12q10 15 12.5 44.5t2.5 55.5v518h70v-516z" />
    <glyph glyph-name="K" unicode="K" horiz-adv-x="583" 
d="M103 691l4 -375h57l238 380l60 -32l-233 -372l82 -71.5l86.5 -75.5l86 -75l80.5 -70h-95l-291 248q-21 0 -35.5 0.5t-36.5 0.5q0 -60 -1 -124.5t-1 -124.5h-69l-1 691h69z" />
    <glyph glyph-name="L" unicode="L" horiz-adv-x="443" 
d="M101 69q74 0 153.5 -1t152.5 -1l1 -69l-375 2l-1 691h69v-622z" />
    <glyph glyph-name="M" unicode="M" horiz-adv-x="623" 
d="M486 691h83l1 -691h-70l-1 516l-93 -258.5l-92 -257.5h-45l-175 512v-512h-69v691h83l185 -543z" />
    <glyph glyph-name="N" unicode="N" horiz-adv-x="537" 
d="M100 691l316 -541v541h69l1 -691h-64l-316 545q0 -134 0.5 -274t0.5 -271h-68l-1 691h62z" />
    <glyph glyph-name="O" unicode="O" horiz-adv-x="709" 
d="M523 559q-32 35 -79 50.5t-98 15.5t-101 -16t-83 -54t-47.5 -94t-14.5 -116t15 -116.5t47 -94.5q33 -38 82 -55.5t102 -17.5t102.5 18t81.5 56q33 38 48.5 94t15.5 116q0 63 -16.5 119t-54.5 94v1zM573 81q-44 -48 -103.5 -69t-123.5 -21q-63 0 -125.5 22t-105.5 70
q-44 49 -64.5 118t-20.5 144q0 36 4.5 72t14.5 69.5t25.5 63t37.5 53.5q43 49 105.5 70.5t128.5 21.5q67 0 129 -23.5t105 -71.5q42 -48 61.5 -115.5t19.5 -139.5q0 -78 -21 -147t-67 -117z" />
    <glyph glyph-name="P" unicode="P" horiz-adv-x="480" 
d="M111 244q0 -60 0.5 -122t0.5 -122h-69l-1 691h205q40 0 77 -13.5t65 -38.5q27 -23 45 -70.5t15 -107.5q-2 -61 -17.5 -98t-42.5 -62q-28 -24 -65 -40.5t-77 -16.5h-136zM111 624v-311h136q53 0 94 43q10 11 17 20.5t10 20.5q10 21 11 65q3 45 -9 79t-30 48
q-19 16 -43 25.5t-53 9.5h-133z" />
    <glyph glyph-name="Q" unicode="Q" horiz-adv-x="665" 
d="M484 573q-29 32 -72.5 45.5t-91.5 13.5q-46 0 -92 -15.5t-77 -50.5q-29 -35 -43.5 -89.5t-14.5 -109.5q0 -54 14 -106.5t43 -87.5q27 -28 68.5 -46t81.5 -22l-7 30t-8 32l-47 -10l-14 61l114 23l30 -132q38 10 73.5 27.5t58.5 48.5q27 35 37 83.5t10 98.5q0 59 -14 114.5
t-49 91.5zM530 120q-70 -56 -150 -73l29 -130l-66 -12l-29 135q-63 2 -116 23t-92 64q-41 45 -59.5 108t-18.5 132q0 70 18.5 134.5t59.5 109.5q40 45 98 64.5t116 19.5q60 0 118.5 -19t99.5 -66q40 -45 58 -109.5t18 -133.5t-19.5 -134.5t-62.5 -110.5z" />
    <glyph glyph-name="S" unicode="S" horiz-adv-x="485" 
d="M107 159l35 -43l-21 -19q17 -14 43.5 -25.5t66.5 -11.5q28 0 53.5 9t44.5 24.5t30.5 36.5t11.5 46t-10 47t-28 38.5t-42.5 26.5t-53.5 11q-45 4 -82 21t-65 42q-27 27 -42 65t-15 76q0 41 17 76t47 60.5t69.5 40t84.5 14.5q59 0 106.5 -23t84.5 -65l-66 -69l-45 40l20 20
q-17 12 -41.5 21.5t-58.5 9.5q-29 0 -55.5 -9.5t-46.5 -25.5t-32.5 -38.5t-12.5 -47.5q0 -26 10 -51.5t29 -44.5h-1q19 -18 45.5 -29.5t56.5 -14.5q41 -4 77.5 -20t63.5 -41t42.5 -57.5t15.5 -68.5q0 -39 -17 -73.5t-46 -60t-68 -40.5t-83 -15q-62 0 -114.5 30t-86.5 78z
" />
    <glyph glyph-name="T" unicode="T" horiz-adv-x="575" 
d="M317 624q0 -153 0.5 -312.5t0.5 -311.5h-69l-1 624h-208v67h485v-67h-208z" />
    <glyph glyph-name="U" unicode="U" horiz-adv-x="598" 
d="M111 182q4 -24 18.5 -46t38.5 -38.5t56 -26.5t71 -10q36 0 67 10t54.5 26.5t38 38.5t18.5 46v509h69v-512q-3 -38 -22.5 -72t-52 -60t-76.5 -41t-96 -15q-53 0 -98.5 15t-79.5 40.5t-54.5 60t-23.5 72.5v512h72v-509z" />
    <glyph glyph-name="V" unicode="V" horiz-adv-x="625" 
d="M26 677l68 17l211 -578l106.5 290l105.5 289l66 -24l-246 -671h-61z" />
    <glyph glyph-name="W" unicode="W" horiz-adv-x="915" 
d="M604 0h-66l-79 481l-53 -241l-52 -240h-65l-253 691h72l208 -566l108 488h76l77 -483l203 561h73z" />
    <glyph glyph-name="X" unicode="X" horiz-adv-x="534" 
d="M27 691h78l161 -275l80 137.5l78 137.5h80l-197 -344l48 -85l50.5 -89l51 -89l48.5 -84h-80l-164 285l-82.5 -142.5l-81.5 -142.5h-77l201 354z" />
    <glyph glyph-name="Y" unicode="Y" horiz-adv-x="681" 
d="M626 661l-260 -401l4 -260h-74v260l-257 399l61 38l233 -365l116.5 181.5l116.5 182.5z" />
    <glyph glyph-name="Z" unicode="Z" horiz-adv-x="565" 
d="M147 69h375l-1 -69h-498l387 622q-92 0 -188.5 -1t-187.5 -1v69l440 2h59z" />
    <glyph glyph-name="braceleft" unicode="{" horiz-adv-x="223" 
d="M157 77q-1 -13 38 -6v-71q-21 0 -34 1t-21.5 3t-13.5 4.5t-10 5.5q-12 8 -19.5 19t-7.5 25v229q0 13 -8 20.5t-19 7.5h-33v68h33q11 0 19 8t8 20v219q4 23 26.5 37t76.5 12v-71q-37 6 -34 -17v-195q-6 -13 -12.5 -20l-14.5 -15l-12 -11l15 -14h-1q9 -8 14.5 -15t10.5 -20
z" />
    <glyph glyph-name="braceright" unicode="}" horiz-adv-x="188" 
d="M45 602q2 14 -39 6l1 71q21 0 34 -1t21 -3t13 -4.5t11 -6.5v1q12 -8 19.5 -18t7.5 -26v-229q0 -13 8 -20.5t19 -7.5h33v-68h-33q-11 0 -19 -8t-8 -20v-219q-4 -23 -26.5 -37t-76.5 -12v72q37 -7 34 17v194q6 13 12.5 20l14.5 15l11 10l-14 15h1q-9 8 -14.5 15t-10.5 20z
" />
    <glyph glyph-name="Euro" unicode="&#x20ac;" horiz-adv-x="745" 
d="M700 109q-51 -54 -114 -85.5t-135 -31.5q-56 0 -106 19.5t-91 53.5t-71 80.5t-45 100.5h-104v69h93v2q-1 5 -1 10v10v20.5t2 18.5q-16 0 -31 0.5t-29 0.5v68l75 -1q16 51 47 95t71.5 76t89 50.5t100.5 18.5q72 0 135.5 -32.5t114.5 -87.5l-70 -65l-42 37l18 23
q-28 23 -65 39.5t-91 16.5q-40 0 -77 -12.5t-67.5 -35t-54.5 -54t-38 -69.5q69 0 144 -1t143 -1v-67l-304 1q-1 -10 -1.5 -20.5t-0.5 -18.5v-8t1 -8v-6q60 0 125.5 -0.5t125.5 -0.5v-69l-236 1q13 -40 37 -74t55.5 -59t69 -39t78.5 -14q55 0 94 18t69 45l-22 26l45 41z" />
    <glyph glyph-name="quotesinglbase" unicode="&#x201a;" horiz-adv-x="172" 
d="M74 90h73l-11 -78q-2 -19 -6 -45.5t-6 -45.5l-74 5l12 90z" />
    <glyph glyph-name="comma" unicode="," horiz-adv-x="173" 
d="M47 89h73l-1 -147h-71z" />
    <glyph glyph-name="period" unicode="." horiz-adv-x="145" 
d="M30 86h83l1 -86h-83z" />
    <glyph glyph-name="zero" unicode="0" horiz-adv-x="626" 
d="M115 339q-1 -63 13.5 -115t40.5 -88.5t61 -56.5t75 -20q41 0 76 20t61 56.5t40 88.5t13 115q1 62 -13.5 113.5t-40 88t-61 56.5t-75.5 19q-40 0 -75 -20.5t-60.5 -57t-40 -87.5t-14.5 -112zM47 339q0 75 20 139t55 110t82 71.5t101 24.5q54 1 101 -24t82 -71t55 -110
t19 -140q1 -77 -19 -141t-55 -110t-82 -71.5t-101 -24.5q-54 -1 -101.5 24.5t-82.5 71.5t-55.5 110t-18.5 141z" />
    <glyph glyph-name="one" unicode="1" horiz-adv-x="263" 
d="M24 577l128 103h58l1 -680h-68l-1 586l-41 -34.5l-38 -31.5z" />
    <glyph glyph-name="two" unicode="2" horiz-adv-x="475" 
d="M144 67h285l1 -67h-384l-1 58l279 312q16 20 26.5 44.5t10.5 53.5q0 31 -11.5 58.5t-32 47t-48 31t-59.5 11.5q-26 0 -63 -16l1 1q-11 -6 -20 -12t-16 -12l20 -19l-38 -38l-60 55q31 50 80 79.5t96 29.5q45 0 85 -17t69.5 -46.5t47 -69t17.5 -83.5q0 -42 -16.5 -79.5
t-42.5 -65.5z" />
    <glyph glyph-name="three" unicode="3" horiz-adv-x="431" 
d="M70 144l42 -36l-19 -22q16 -11 38.5 -20t51.5 -9q30 0 56.5 10t46.5 28t31.5 41.5t11.5 50.5q0 23 -11 44.5t-29.5 38.5t-42.5 28.5t-50 14.5h-74v68h74q28 1 52.5 11t43 26t29 36.5t10.5 43.5q0 25 -11.5 47t-31.5 38t-46 25t-56 9q-31 0 -52.5 -6t-35.5 -17
q3 -5 7.5 -10t6.5 -7l-39 -36l-61 67q34 38 78.5 57t95.5 19q44 0 83 -14.5t68.5 -40t46.5 -59t17 -72.5q0 -48 -26 -88.5t-68 -64.5q39 -27 64.5 -68.5t25.5 -89.5q0 -41 -17 -77t-46 -62.5t-68 -42t-83 -15.5q-51 0 -94.5 22t-75.5 59z" />
    <glyph glyph-name="four" unicode="4" horiz-adv-x="462" 
d="M269 584l-78 -136.5l-80 -139.5h156zM250 680h87l-2 -372h69v-67l-69 -1q0 -59 0.5 -120.5t0.5 -119.5h-68l-1 240h-240l2 57z" />
    <glyph glyph-name="five" unicode="5" horiz-adv-x="504" 
d="M51 355l-1 322l388 3v-68l-320 -3v-160q26 22 54.5 34t67.5 12q46 0 87 -19.5t71.5 -52.5t48 -78t17.5 -96t-17.5 -96.5t-47.5 -79.5t-70.5 -53.5t-87.5 -19.5q-54 0 -103 28.5t-103 82.5l77 81l43 -40l-31 -34q25 -21 52 -35.5t64 -14.5q33 0 61.5 14t49.5 38.5t33 57.5
t12 71t-12 70.5t-33 56.5t-49.5 38t-61.5 14q-45 0 -74 -23q-17 -13 -30.5 -24.5t-24.5 -25.5h-60z" />
    <glyph glyph-name="six" unicode="6" horiz-adv-x="506" 
d="M468 201q0 -45 -16.5 -83t-45.5 -66t-67.5 -44t-82.5 -16q-42 0 -78.5 16.5t-64 44t-45 64.5t-20.5 79q-3 32 -3.5 66t-0.5 65v21q0 44 2 82.5t10 74.5q7 37 26 69.5t46.5 56.5t62.5 38.5t74 15.5q55 0 101 -22t83 -82l-63 -54l-50 40l27 21q-21 15 -43 22t-54 7
q-26 0 -50 -10t-43.5 -28t-33 -41.5t-19.5 -50.5q-6 -32 -9.5 -65.5t-3.5 -69.5q24 29 58.5 48.5t91.5 24.5q33 0 57.5 -3t40.5 -11q15 -6 31 -16.5t29 -24.5l-1 1q28 -27 40.5 -72t13.5 -90v-8zM401 208q0 15 -2 31t-5.5 31.5t-9.5 29.5t-14 23q-16 18 -41.5 26.5
t-65.5 8.5q-46 -3 -67 -15q-19 -10 -40 -36q-18 -24 -29.5 -52t-11.5 -57t11.5 -54.5t31 -44.5t45.5 -30t55 -11q30 0 56 11t45.5 30.5t30.5 45t11 54.5v9z" />
    <glyph glyph-name="seven" unicode="7" horiz-adv-x="443" 
d="M310 612q-69 0 -138 -1t-138 -1v68l388 2l-317 -683l-69 21z" />
    <glyph glyph-name="eight" unicode="8" horiz-adv-x="459" 
d="M23 184q0 56 25 98t67 68q-33 23 -52.5 60t-19.5 97q0 37 14.5 69t39 56t57.5 38t71 14t71.5 -14t58 -38t39 -56t14.5 -69q0 -57 -19 -95.5t-51 -61.5q43 -26 67 -68t24 -98q0 -44 -16 -78.5t-43.5 -59t-65 -38t-79.5 -16.5q-42 3 -78.5 16.5t-64 38t-43.5 59t-16 78.5z
M111 507q0 -23 9 -50.5t24 -43.5h-1q16 -15 37 -23.5t45 -8.5q23 0 44.5 8.5t37.5 23.5q15 15 24 42.5t9 51.5q0 23 -9 43t-24.5 34.5t-36.5 23t-45 8.5t-45 -8.5t-36 -23t-24 -34.5t-9 -43zM91 184q0 -29 10.5 -51.5t29 -38.5t43 -25t51.5 -10q28 1 53 10t43.5 25t29 38.5
t10.5 51.5q0 26 -10.5 49.5t-29 41.5t-43.5 28.5t-53 10.5q-27 0 -51.5 -10.5t-43 -28.5t-29 -41.5t-10.5 -49.5z" />
    <glyph glyph-name="nine" unicode="9" horiz-adv-x="489" 
d="M28 475q0 43 16.5 81.5t45.5 67t67 45t82 16.5q42 0 78.5 -17t64.5 -45.5t46 -66t23 -77.5q2 -31 2.5 -66t0.5 -67v-26q0 -39 -2.5 -76t-8.5 -71q-9 -40 -29 -73t-49.5 -57t-66 -37t-76.5 -13q-25 0 -53 7.5t-55.5 22t-53.5 36t-47 50.5l83 79l49 -48l-37 -32
q8 -11 18.5 -18t27.5 -13q20 -7 38.5 -11t35.5 -4q58 0 98.5 36t52.5 91v-1q5 32 7.5 67t3.5 72q-29 -28 -68.5 -44t-84.5 -16q-41 0 -78.5 15.5t-66 43t-46 64t-18.5 78.5v7zM240 616q-31 0 -57.5 -12t-46 -32t-30.5 -46t-11 -55q1 -29 12.5 -53.5t31 -43.5t44.5 -29.5
t54 -10.5q31 0 58 11t46.5 30.5t30.5 45.5t11 56q0 28 -12 53.5t-31.5 44.5t-45.5 30t-54 11z" />
    <glyph glyph-name="questiondown" unicode="&#xbf;" horiz-adv-x="432" 
d="M183 0l5 245q-81 12 -122.5 66t-39.5 151q2 216 193 220q140 3 203 -141l-61 -57l-36 46l23 22q-14 25 -48 41.5t-82 21.5q-60 -2 -92.5 -40t-32.5 -113q-5 -140 100 -153l62 -11v-51l-2 -247h-70zM253 -93h-68v67h68v-67z" />
    <glyph glyph-name="ae" unicode="&#xe6;" horiz-adv-x="743" 
d="M301 22q-20 -14 -46 -22.5t-55 -8.5q-34 0 -64 12.5t-52.5 33.5t-36 49.5t-13.5 60.5q0 33 13.5 61.5t36.5 50t53.5 34t65.5 12.5l93 -18l4 36v-2q0 24 -7 45t-19 36.5t-28 25t-34 10.5q-36 0 -78 -12l8 -35l-63 -20l-28 98q49 18 89.5 27.5t73.5 9.5q42 -2 75.5 -25
t54.5 -61q28 42 65.5 64.5t84.5 22.5q21 0 43.5 -5t44 -14t40 -22.5t32.5 -30.5q26 -35 33 -82t7 -99v-37h-328v-25q7 -28 20.5 -52.5t31.5 -42.5t40 -28.5t46 -10.5q14 0 30 3t30 8q9 2 20 7.5l17 8.5l-16 33l60 26l40 -89q-31 -19 -53.5 -30.5t-36.5 -16.5
q-29 -10 -65 -16h-26q-39 0 -73.5 15.5t-62.5 43.5q1 -16 -0.5 -30.5t-6.5 -20.5h-60v22zM627 284q-2 31 -7 60t-21 49q-18 21 -48.5 33t-56.5 12q-25 0 -47.5 -11.5t-39.5 -31.5t-28 -48.5t-12 -62.5h260zM292 219q-23 5 -47.5 9.5t-47.5 9.5q-20 0 -37 -7.5t-30 -20
t-20 -29t-7 -34.5q0 -37 27.5 -62.5t69.5 -25.5t71 25.5t29 62.5v26l-8 34v12z" />
    <glyph glyph-name="a" unicode="a" horiz-adv-x="406" 
d="M296 22q-20 -14 -46 -22.5t-55 -8.5q-34 0 -64 12.5t-52.5 33.5t-36 49.5t-13.5 60.5q0 35 14 64t37.5 50t55 32.5t66.5 11.5l52 -5l37 -11l3 -3q1 7 1 12.5v12.5q0 52 -24 88.5t-63 38.5q-23 0 -46 -3.5t-46 -9.5q2 -8 4.5 -15.5t3.5 -12.5l-53 -13l-27 89
q49 16 90 24.5t75 8.5q30 -1 57.5 -15t48 -38t33.5 -55.5t15 -67.5v-10q-1 -12 -1 -23.5v-25.5q-1 -23 -1 -52v-58v-52q1 -8 1 -21v-27q0 -10 0.5 -28.5t0.5 -32.5h-67v22zM293 211l-6.5 6.5t-8.5 6.5l-40 12l3 -1l-40 3q-43 -1 -73 -25.5t-30 -65.5q0 -37 28 -62.5
t69 -25.5q42 0 71 25.5t29 62.5z" />
    <glyph glyph-name="b" unicode="b" horiz-adv-x="523" 
d="M116 103q0 -9 10.5 -16.5t28 -13.5t41 -10t49.5 -5q35 1 66 8.5t54 32.5q23 26 35 52.5t12 64.5t-12 63t-35 51t-54 41.5t-66 15.5q-50 0 -86.5 -10t-42.5 -27v-247zM115 0h-65v62t1 42v576h68v-251q25 14 57 22.5t69 8.5q51 0 94.5 -23t75.5 -56q34 -33 49.5 -72.5
t15.5 -92.5t-16 -91t-50 -73q-33 -36 -76 -48t-94 -13q-38 1 -71 9t-58 19v-19z" />
    <glyph glyph-name="c" unicode="c" horiz-adv-x="478" 
d="M368 354l-42 40l15 16q-14 11 -36 19.5t-51 8.5q-36 0 -67.5 -15t-54.5 -40.5t-36.5 -60t-13.5 -74.5q0 -39 13.5 -73.5t36.5 -60t54.5 -40.5t67.5 -15q29 0 51.5 8t36.5 18l-18 20l40 39l70 -65q-38 -41 -83.5 -64t-96.5 -23q-49 0 -92.5 20.5t-76.5 55t-52 81t-19 99.5
t19 100t52 82t76.5 55.5t92.5 20.5q52 0 98.5 -24t83.5 -65z" />
    <glyph glyph-name="oe" unicode="&#x153;" horiz-adv-x="880" 
d="M645 58q14 0 28 0.5t26 4.5h-1q11 4 23.5 10t22.5 12l-15 35l59 19l36 -86q-12 -7 -35 -18.5l-44 -21.5q-22 -11 -41 -16t-39 -5h-26q-58 0 -106 35t-77 91q-31 -57 -83 -92t-118 -35q-48 0 -91 20.5t-75.5 55.5t-51 81.5t-18.5 98.5q0 54 18.5 101t51 82t75.5 55.5
t91 20.5q64 0 116 -34.5t84 -91.5q26 57 71.5 92t102.5 35q42 0 84 -15.5t70 -49.5q26 -34 41.5 -80.5t13.5 -107.5v-37h-342q4 -33 17 -62t32 -50.5t43 -34t51 -12.5h6zM87 247q0 -39 13 -73.5t36 -60t53.5 -40.5t65.5 -15q34 0 63.5 15t52 40.5t35.5 60t13 73.5
q0 40 -13 74.5t-35.5 60.5t-52 41t-63.5 15q-35 0 -65.5 -15t-53.5 -41t-36 -60.5t-13 -74.5zM764 284q1 6 0.5 9t-0.5 8q0 34 -11.5 60.5t-30.5 44t-43.5 25.5t-49.5 7q-24 0 -46 -12t-40 -33t-30 -49t-17 -60h268z" />
    <glyph glyph-name="OE" unicode="&#x152;" horiz-adv-x="1056" 
d="M572 89q-43 -48 -98.5 -73t-120.5 -25q-60 0 -120 27t-107.5 75t-76 113t-25.5 140v-1q0 73 24.5 136t75.5 111t107 75.5t122 27.5q78 0 140.5 -33.5t106.5 -96.5v126h398v-67h-329v-222h166v-69h-166v-264h329l1 -69h-398l-1 122q-6 -9 -13 -17t-15 -16zM522 551
q-32 35 -76 54.5t-93 19.5q-48 0 -95.5 -22t-84.5 -59.5t-59.5 -89t-19.5 -109.5q-3 -59 19 -111t59 -90t84.5 -60.5t96.5 -22.5t91.5 20.5t75 56t53.5 82t27 99.5v51q-5 54 -25.5 100t-52.5 81z" />
    <glyph glyph-name="question" unicode="?" horiz-adv-x="466" 
d="M189 0l-2 247v51l61 11q105 14 101 153q0 151 -125 153q-102 -9 -130 -63l23 -22l-36 -46l-60 57q62 144 202 141q191 -4 193 -220q2 -97 -39.5 -151t-122.5 -66q1 -59 2.5 -123.5t2.5 -121.5h-70zM218 -65h11v10h-11v-10z" />
    <glyph glyph-name="acute" unicode="&#xb4;" horiz-adv-x="209" 
d="M102 520l-75 2l84 110h81z" />
    <glyph glyph-name="grave" unicode="`" horiz-adv-x="204" 
d="M9 618l62 47l116 -111l-53 -36z" />
    <glyph glyph-name="agrave" unicode="&#xe0;" horiz-adv-x="406" 
d="M296 22q-20 -14 -46 -22.5t-55 -8.5q-34 0 -64 12.5t-52.5 33.5t-36 49.5t-13.5 60.5q0 35 14 64t37.5 50t55 32.5t66.5 11.5l52 -5l37 -11l3 -3q1 7 1 12.5v12.5q0 52 -24 88.5t-63 38.5q-23 0 -46 -3.5t-46 -9.5q2 -8 4.5 -15.5t3.5 -12.5l-53 -13l-27 89
q49 16 90 24.5t75 8.5q30 -1 57.5 -15t48 -38t33.5 -55.5t15 -67.5v-10q-1 -12 -1 -23.5v-25.5q-1 -23 -1 -52v-58v-52q1 -8 1 -21v-27q0 -10 0.5 -28.5t0.5 -32.5h-67v22zM293 211l-6.5 6.5t-8.5 6.5l-40 12l3 -1l-40 3q-43 -1 -73 -25.5t-30 -65.5q0 -37 28 -62.5
t69 -25.5q42 0 71 25.5t29 62.5zM69 618l62 47l116 -111l-53 -36z" />
    <glyph glyph-name="aacute" unicode="&#xe1;" horiz-adv-x="406" 
d="M296 22q-20 -14 -46 -22.5t-55 -8.5q-34 0 -64 12.5t-52.5 33.5t-36 49.5t-13.5 60.5q0 35 14 64t37.5 50t55 32.5t66.5 11.5l52 -5l37 -11l3 -3q1 7 1 12.5v12.5q0 52 -24 88.5t-63 38.5q-23 0 -46 -3.5t-46 -9.5q2 -8 4.5 -15.5t3.5 -12.5l-53 -13l-27 89
q49 16 90 24.5t75 8.5q30 -1 57.5 -15t48 -38t33.5 -55.5t15 -67.5v-10q-1 -12 -1 -23.5v-25.5q-1 -23 -1 -52v-58v-52q1 -8 1 -21v-27q0 -10 0.5 -28.5t0.5 -32.5h-67v22zM293 211l-6.5 6.5t-8.5 6.5l-40 12l3 -1l-40 3q-43 -1 -73 -25.5t-30 -65.5q0 -37 28 -62.5
t69 -25.5q42 0 71 25.5t29 62.5zM237 520l-75 2l84 110h81z" />
    <glyph glyph-name="Agrave" unicode="&#xc0;" 
d="M425 232l-127 333l-121 -332zM271 691h53l255 -691h-72l-57 163q-75 0 -148 0.5t-149 0.5l-64 -164h-72zM168 809l62 47l116 -111l-53 -36z" />
    <glyph glyph-name="Aacute" unicode="&#xc1;" 
d="M425 232l-127 333l-121 -332zM271 691h53l255 -691h-72l-57 163q-75 0 -148 0.5t-149 0.5l-64 -164h-72zM348 711l-75 2l84 110h81z" />
    <glyph glyph-name="Acircumflex" unicode="&#xc2;" 
d="M425 232l-127 333l-121 -332zM271 691h53l255 -691h-72l-57 163q-75 0 -148 0.5t-149 0.5l-64 -164h-72z" />
    <glyph glyph-name="Egrave" unicode="&#xc8;" horiz-adv-x="485" 
d="M222 249h-120v-180h342l1 -69h-411l-1 691h411v-67h-342v-306h120v-69zM99 809l62 47l116 -111l-53 -36z" />
    <glyph glyph-name="Eacute" unicode="&#xc9;" horiz-adv-x="485" 
d="M222 249h-120v-180h342l1 -69h-411l-1 691h411v-67h-342v-306h120v-69zM265 711l-75 2l84 110h81z" />
    <glyph glyph-name="Ograve" unicode="&#xd2;" horiz-adv-x="690" 
d="M517 559q-32 35 -79 50.5t-98 15.5t-101 -16t-83 -54t-47.5 -94t-14.5 -116t15 -116.5t47 -94.5q33 -38 82 -55.5t102 -17.5t102.5 18t81.5 56q33 38 48.5 94t15.5 116q0 63 -16.5 119t-54.5 94v1zM567 81q-44 -48 -103.5 -69t-123.5 -21q-63 0 -125.5 22t-105.5 70
q-44 49 -64.5 118t-20.5 144q0 36 4.5 72t14.5 69.5t25.5 63t37.5 53.5q43 49 105.5 70.5t128.5 21.5q67 0 129 -23.5t105 -71.5q42 -48 61.5 -115.5t19.5 -139.5q0 -78 -21 -147t-67 -117zM190 809l62 47l116 -111l-53 -36z" />
    <glyph glyph-name="Oacute" unicode="&#xd3;" horiz-adv-x="690" 
d="M517 559q-32 35 -79 50.5t-98 15.5t-101 -16t-83 -54t-47.5 -94t-14.5 -116t15 -116.5t47 -94.5q33 -38 82 -55.5t102 -17.5t102.5 18t81.5 56q33 38 48.5 94t15.5 116q0 63 -16.5 119t-54.5 94v1zM567 81q-44 -48 -103.5 -69t-123.5 -21q-63 0 -125.5 22t-105.5 70
q-44 49 -64.5 118t-20.5 144q0 36 4.5 72t14.5 69.5t25.5 63t37.5 53.5q43 49 105.5 70.5t128.5 21.5q67 0 129 -23.5t105 -71.5q42 -48 61.5 -115.5t19.5 -139.5q0 -78 -21 -147t-67 -117zM403 711l-75 2l84 110h81z" />
    <glyph glyph-name="Ugrave" unicode="&#xd9;" horiz-adv-x="598" 
d="M111 182q4 -24 18.5 -46t38.5 -38.5t56 -26.5t71 -10q36 0 67 10t54.5 26.5t38 38.5t18.5 46v509h69v-512q-3 -38 -22.5 -72t-52 -60t-76.5 -41t-96 -15q-53 0 -98.5 15t-79.5 40.5t-54.5 60t-23.5 72.5v512h72v-509zM162 809l62 47l116 -111l-53 -36z" />
    <glyph glyph-name="Uacute" unicode="&#xda;" horiz-adv-x="598" 
d="M111 182q4 -24 18.5 -46t38.5 -38.5t56 -26.5t71 -10q36 0 67 10t54.5 26.5t38 38.5t18.5 46v509h69v-512q-3 -38 -22.5 -72t-52 -60t-76.5 -41t-96 -15q-53 0 -98.5 15t-79.5 40.5t-54.5 60t-23.5 72.5v512h72v-509zM344 711l-75 2l84 110h81z" />
    <glyph glyph-name="Yacute" unicode="&#xdd;" horiz-adv-x="681" 
d="M626 661l-260 -401l4 -260h-74v260l-257 399l61 38l233 -365l116.5 181.5l116.5 182.5zM394 711l-75 2l84 110h81z" />
    <glyph glyph-name="egrave" unicode="&#xe8;" horiz-adv-x="456" 
d="M232 58q14 0 30 3t30 8h-1q9 3 21 8.5t19 9.5l-13 31l54 26l39 -89q-29 -19 -51 -30.5t-37 -16.5q-29 -10 -65 -16h-26q-54 0 -92 18.5t-63.5 50.5t-39 75.5t-17.5 93.5v19q0 53 9 102.5t36 84.5q28 36 71.5 53.5t85.5 17.5t85.5 -13.5t72.5 -50.5q23 -29 36.5 -63.5
t13.5 -82.5q0 -9 -1 -21.5t-3 -27.5l-7 -31h-329q4 -35 12.5 -64t25 -50t42 -33t62.5 -12zM357 284q3 16 3 29q0 29 -10 49t-26 39q-18 23 -47 30t-55 7t-55 -10t-49 -37q-19 -25 -23.5 -51t-5.5 -56h268zM98 618l62 47l116 -111l-53 -36z" />
    <glyph glyph-name="eacute" unicode="&#xe9;" horiz-adv-x="456" 
d="M232 58q14 0 30 3t30 8h-1q9 3 21 8.5t19 9.5l-13 31l54 26l39 -89q-29 -19 -51 -30.5t-37 -16.5q-29 -10 -65 -16h-26q-54 0 -92 18.5t-63.5 50.5t-39 75.5t-17.5 93.5v19q0 53 9 102.5t36 84.5q28 36 71.5 53.5t85.5 17.5t85.5 -13.5t72.5 -50.5q23 -29 36.5 -63.5
t13.5 -82.5q0 -9 -1 -21.5t-3 -27.5l-7 -31h-329q4 -35 12.5 -64t25 -50t42 -33t62.5 -12zM357 284q3 16 3 29q0 29 -10 49t-26 39q-18 23 -47 30t-55 7t-55 -10t-49 -37q-19 -25 -23.5 -51t-5.5 -56h268zM266 520l-75 2l84 110h81z" />
    <glyph glyph-name="igrave" unicode="&#xec;" horiz-adv-x="211" 
d="M78 500h66l1 -500h-67v500zM-16 632h91l81 -107l-65 -12z" />
    <glyph glyph-name="iacute" unicode="&#xed;" horiz-adv-x="211" 
d="M51 500h67l1 -500h-67zM107 514l-64 11l81 107h82z" />
    <glyph glyph-name="ograve" unicode="&#xf2;" horiz-adv-x="527" 
d="M14 247q0 54 14 104t46 85q33 35 80.5 52.5t95.5 17.5t93 -18t76 -53q32 -35 48 -85t16 -103q0 -51 -15 -102t-46 -87q-31 -35 -78 -51t-94 -16q-48 0 -95.5 15.5t-80.5 51.5q-32 36 -46 86t-14 103zM82 247q0 -38 10 -77t30 -65q23 -24 58 -35.5t70 -11.5t68.5 11
t54.5 36q23 26 32 64t9 78q0 41 -10.5 78t-34.5 63q-21 26 -53.5 38t-65.5 12t-69 -13t-59 -36q-20 -26 -30 -64.5t-10 -77.5zM134 618l62 47l116 -111l-53 -36z" />
    <glyph glyph-name="oacute" unicode="&#xf3;" horiz-adv-x="527" 
d="M14 247q0 54 14 104t46 85q33 35 80.5 52.5t95.5 17.5t93 -18t76 -53q32 -35 48 -85t16 -103q0 -51 -15 -102t-46 -87q-31 -35 -78 -51t-94 -16q-48 0 -95.5 15.5t-80.5 51.5q-32 36 -46 86t-14 103zM82 247q0 -38 10 -77t30 -65q23 -24 58 -35.5t70 -11.5t68.5 11
t54.5 36q23 26 32 64t9 78q0 41 -10.5 78t-34.5 63q-21 26 -53.5 38t-65.5 12t-69 -13t-59 -36q-20 -26 -30 -64.5t-10 -77.5zM308 520l-75 2l84 110h81z" />
    <glyph glyph-name="ugrave" unicode="&#xf9;" horiz-adv-x="450" 
d="M327 41q-23 -23 -53 -36t-63 -13q-35 0 -65.5 14.5t-53.5 39t-37 57.5t-16 71l-3 3v321h67v-314l2 -5q1 -24 10.5 -45.5t25 -38t35 -26t42.5 -9.5q20 0 38.5 8.5t33 23.5t24.5 34.5t13 40.5v333h68l2 -500h-69zM97 618l62 47l116 -111l-53 -36z" />
    <glyph glyph-name="uacute" unicode="&#xfa;" horiz-adv-x="450" 
d="M327 41q-23 -23 -53 -36t-63 -13q-35 0 -65.5 14.5t-53.5 39t-37 57.5t-16 71l-3 3v321h67v-314l2 -5q1 -24 10.5 -45.5t25 -38t35 -26t42.5 -9.5q20 0 38.5 8.5t33 23.5t24.5 34.5t13 40.5v333h68l2 -500h-69zM255 520l-75 2l84 110h81z" />
    <glyph glyph-name="yacute" unicode="&#xfd;" horiz-adv-x="535" 
d="M54 -86l51 -6l-5 -29q28 -2 48 7q24 9 45 70l36 87l-188 456h73l150 -366l74 183.5l73 182.5h74l-190 -457l-20 -53l-20 -54q-1 -2 -1.5 -5.5t-0.5 -4.5q-35 -81 -76 -99q-36 -15 -85 -15q-20 0 -50 8zM318 520l-75 2l84 110h81z" />
    <glyph glyph-name="colon" unicode=":" horiz-adv-x="182" 
d="M45 82h83l1 -82h-83zM45 500h83v-84h-83v84z" />
    <glyph glyph-name="semicolon" unicode=";" horiz-adv-x="169" 
d="M43 500h84v-84h-84v84zM51 93h73v-167h-73v167z" />
    <glyph glyph-name="equal" unicode="=" horiz-adv-x="440" 
d="M70 439h320v-70h-320v70zM70 262h320v-70h-320v70z" />
    <glyph glyph-name="Ccedilla" unicode="&#xc7;" horiz-adv-x="634" 
d="M548 550l-30 -32l-40 45l17 17q-24 19 -57.5 33.5t-78.5 14.5q-52 0 -97 -23t-78.5 -62t-53 -91t-19.5 -110q0 -57 19 -108.5t52 -90.5t78.5 -62t98.5 -23q42 0 74.5 14t56.5 32l-17 18l41 40l70 -65q-49 -52 -105 -78t-119 -28q15 -7 29.5 -23t14.5 -38q0 -19 -13 -35
q-16 -19 -96 -46l-73 54q20 0 41 1.5t48 9.5q23 6 28 9t5 9q0 8 -13 11.5t-21 3.5h-23l1 52q-52 14 -96.5 46t-77.5 77t-52 101t-19 119q0 75 25 139.5t68 112t100.5 74.5t122.5 27q63 0 120.5 -28t106.5 -80z" />
    <glyph glyph-name="ccedilla" unicode="&#xe7;" horiz-adv-x="493" 
d="M289 -11q15 -8 30.5 -23.5t15.5 -38.5q0 -18 -13 -35q-12 -18 -125 -56l-8 63q11 2 20.5 4.5t15.5 4.5q5 3 9 4.5t10 3.5h-1l16 7q14 5 16 3q-1 12 -13.5 15t-20.5 3q-2 0 -3 -0.5t-2 -0.5h-18l2 54q-42 8 -77 30.5t-60.5 56t-39.5 75.5t-14 90q0 52 18.5 99t51 82
t76.5 55.5t94 20.5q52 0 98.5 -24t83.5 -66l-65 -65l-45 39l19 19q-15 11 -37.5 20t-53.5 9q-36 0 -67 -15t-54.5 -40.5t-37 -60t-13.5 -73.5q0 -40 13.5 -74.5t37 -60t54.5 -40.5t67 -15q29 0 51.5 8t37.5 19l-18 23l44 35l64 -68q-34 -35 -73.5 -57.5t-84.5 -26.5z" />
    <glyph glyph-name="cent" unicode="&#xa2;" horiz-adv-x="478" 
d="M221 550h72l-2 -48q42 -8 78.5 -30.5t66.5 -54.5l-66 -60l-48 33l17 21q-13 8 -25 12.5l-23 8.5v-369q32 7 54 26l-14 17l40 40l63 -68q-66 -68 -143 -83v-47h-72v46q-43 6 -80.5 28.5t-66 56.5t-46 77.5t-19.5 91.5q2 48 19.5 91.5t46 77t66.5 56t80 29.5zM219 433
q-30 -7 -56.5 -23.5t-46 -40.5t-30.5 -54.5t-11 -65.5q2 -34 14 -64.5t31.5 -55t44.5 -42t54 -24.5v370z" />
    <glyph glyph-name="bar" unicode="|" horiz-adv-x="131" 
d="M40 678h52l1 -677h-52z" />
    <glyph glyph-name="glyph107" horiz-adv-x="478" 
d="M376 358l-42 36l19 18q-17 14 -41 23.5t-56 9.5q-36 0 -68 -15t-56 -41.5t-37.5 -61.5t-13.5 -75q0 -39 13.5 -74t37.5 -61.5t56 -41.5t68 -15q32 0 55 8.5t40 22.5l-15 18l42 37l60 -66q-39 -41 -85 -65t-97 -24q-50 0 -94.5 21t-77.5 56.5t-52.5 83t-19.5 100.5
q0 54 19.5 101.5t52.5 83t77.5 56.5t94.5 21q53 0 100 -24.5t85 -65.5zM201 577h74v-649h-74v649z" />
    <glyph glyph-name="dollar" unicode="$" horiz-adv-x="466" 
d="M192 611q-20 -6 -38 -17t-31 -26t-20.5 -33t-7.5 -37q0 -40 27.5 -73.5t69.5 -47.5v234zM259 64q42 10 71 39t29 72q0 42 -27.5 74.5t-72.5 46.5v-232zM259 701v-18q25 -2 46 -6.5t39 -14.5q22 -11 37 -22t26 -26l-61 -49q-6 24 -33 37q-13 7 -26.5 11t-27.5 5v-254
q38 -9 69.5 -26t54 -41.5t34.5 -55t12 -64.5t-13 -64.5t-36 -54.5t-54 -40.5t-67 -22.5v-25h-67v22q-51 6 -95 31q-44 27 -61 51l56 45q10 -19 42 -39q14 -8 28 -13.5t30 -7.5v248q-38 7 -68.5 25t-52.5 42.5t-34 55.5t-12 64q0 35 12.5 66t34.5 55t52.5 40.5t67.5 23.5v22
h67z" />
    <glyph glyph-name="quoteleft" unicode="&#x2018;" horiz-adv-x="150" 
d="M143 530l-66 -30l-32 68l-38 95l75 15l31 -82z" />
    <glyph glyph-name="quoteright" unicode="&#x2019;" horiz-adv-x="159" 
d="M43 675l74 6l7 -73q2 -18 6.5 -43.5t6.5 -42.5h-73l-13 77z" />
    <glyph glyph-name="quotedblright" unicode="&#x201d;" horiz-adv-x="237" 
d="M44 675l74 6l7 -73v0l13 -87l-76 1l-10 78zM113 675l74 6l7 -73v0l12 -87l-75 1l-10 78z" />
    <glyph glyph-name="quotedblleft" unicode="&#x201c;" horiz-adv-x="218" 
d="M178 600l-11 -76l-70 6l7 78l8 73l74 -6zM109 600l-11 -76l-69 6l6 78l8 73l74 -6z" />
    <glyph glyph-name="quotedbl" unicode="&#x22;" horiz-adv-x="217" 
d="M23 680h73l-1 -156l-72 -1v157zM93 680h74v-156l-74 -1v157z" />
    <glyph glyph-name="quotedblbase" unicode="&#x201e;" horiz-adv-x="231" 
d="M56 97l74 -9l-9 -74l-10 -76l-71 6l9 79zM127 95l72 -9l-9 -73l-8 -76l-74 6l11 80z" />
    <glyph glyph-name="ordfeminine" unicode="&#xaa;" horiz-adv-x="179" 
d="M111 302q-11 -4 -26 -4q-31 0 -52 20.5t-21 49.5q0 28 21 47.5t53 19.5h18q-2 8 -6 13.5t-9 5.5h-13.5t-13.5 -2q0 -4 0.5 -9t0.5 -7l-38 -2l-10 61q44 11 74 11q29 0 47 -22t19 -53v-57q0 -10 -0.5 -31t-1.5 -41h-42zM85 384q-9 0 -15 -5.5t-6 -10.5q0 -7 6 -12t15 -5
q8 0 14 5t6 12v16h-20z" />
    <glyph glyph-name="ordmasculine" unicode="&#xba;" horiz-adv-x="232" 
d="M76 387q0 -14 11 -26t25 -12q11 0 21.5 12t10.5 26q0 17 -10.5 30t-21.5 13q-14 0 -25 -13t-11 -30zM29 387q0 41 24 65.5t59 24.5q32 0 56 -25t24 -65q0 -18 -6.5 -33.5t-17.5 -27t-25.5 -18.5t-30.5 -7q-18 0 -33 7t-26 19t-17.5 27.5t-6.5 32.5z" />
    <glyph glyph-name="twosuperior" unicode="&#xb2;" horiz-adv-x="280" 
d="M246 356v-57h-225v48l150 167q8 9 13 22t5 24q0 26 -20.5 46t-49.5 19q-11 -1 -20 -3.5t-17 -9.5l24 -25l-45 -27l-58 59l27 21.5t30.5 21t31 16t29.5 6.5q27 0 49.5 -10t39.5 -26.5t26.5 -39.5t9.5 -48t-10.5 -48.5t-22.5 -37.5l-105 -118h138z" />
    <glyph glyph-name="threesuperior" unicode="&#xb3;" horiz-adv-x="265" 
d="M73 361q8 -4 17 -7t20 -3q23 0 43 16.5t20 39.5q0 21 -18 36.5t-38 20.5h-38v58h37q23 2 40.5 17t17.5 35t-19.5 35t-43.5 15q-11 0 -20 -2.5t-17 -6.5l9 -14l-34 -24l-47 52q46 51 109 51q25 0 47.5 -8.5t39 -22.5t26.5 -33.5t10 -41.5q0 -29 -9.5 -49t-32.5 -34
q17 -17 28 -39t11 -45q0 -24 -10 -45t-26.5 -36t-38.5 -23.5t-46 -8.5q-62 0 -108 54l42 54l40 -24z" />
    <glyph glyph-name="dieresis" unicode="&#xa8;" horiz-adv-x="263" 
d="M29 667h81v-81h-81v81zM136 668h81v-81h-81v81z" />
    <glyph glyph-name="adieresis" unicode="&#xe4;" horiz-adv-x="406" 
d="M296 22q-20 -14 -46 -22.5t-55 -8.5q-34 0 -64 12.5t-52.5 33.5t-36 49.5t-13.5 60.5q0 35 14 64t37.5 50t55 32.5t66.5 11.5l52 -5l37 -11l3 -3q1 7 1 12.5v12.5q0 52 -24 88.5t-63 38.5q-23 0 -46 -3.5t-46 -9.5q2 -8 4.5 -15.5t3.5 -12.5l-53 -13l-27 89
q49 16 90 24.5t75 8.5q30 -1 57.5 -15t48 -38t33.5 -55.5t15 -67.5v-10q-1 -12 -1 -23.5v-25.5q-1 -23 -1 -52v-58v-52q1 -8 1 -21v-27q0 -10 0.5 -28.5t0.5 -32.5h-67v22zM293 211l-6.5 6.5t-8.5 6.5l-40 12l3 -1l-40 3q-43 -1 -73 -25.5t-30 -65.5q0 -37 28 -62.5
t69 -25.5q42 0 71 25.5t29 62.5zM108 663h76v-76h-76v76zM218 662h76v-76h-76v76z" />
    <glyph glyph-name="edieresis" unicode="&#xeb;" horiz-adv-x="456" 
d="M232 58q14 0 30 3t30 8h-1q9 3 21 8.5t19 9.5l-13 31l54 26l39 -89q-29 -19 -51 -30.5t-37 -16.5q-29 -10 -65 -16h-26q-54 0 -92 18.5t-63.5 50.5t-39 75.5t-17.5 93.5v19q0 53 9 102.5t36 84.5q28 36 71.5 53.5t85.5 17.5t85.5 -13.5t72.5 -50.5q23 -29 36.5 -63.5
t13.5 -82.5q0 -9 -1 -21.5t-3 -27.5l-7 -31h-329q4 -35 12.5 -64t25 -50t42 -33t62.5 -12zM357 284q3 16 3 29q0 29 -10 49t-26 39q-18 23 -47 30t-55 7t-55 -10t-49 -37q-19 -25 -23.5 -51t-5.5 -56h268zM122 667h81v-81h-81v81zM229 668h81v-81h-81v81z" />
    <glyph glyph-name="odieresis" unicode="&#xf6;" horiz-adv-x="527" 
d="M14 247q0 54 14 104t46 85q33 35 80.5 52.5t95.5 17.5t93 -18t76 -53q32 -35 48 -85t16 -103q0 -51 -15 -102t-46 -87q-31 -35 -78 -51t-94 -16q-48 0 -95.5 15.5t-80.5 51.5q-32 36 -46 86t-14 103zM82 247q0 -38 10 -77t30 -65q23 -24 58 -35.5t70 -11.5t68.5 11
t54.5 36q23 26 32 64t9 78q0 41 -10.5 78t-34.5 63q-21 26 -53.5 38t-65.5 12t-69 -13t-59 -36q-20 -26 -30 -64.5t-10 -77.5zM163 667h81v-81h-81v81zM270 668h81v-81h-81v81z" />
    <glyph glyph-name="udieresis" unicode="&#xfc;" horiz-adv-x="450" 
d="M327 41q-23 -23 -53 -36t-63 -13q-35 0 -65.5 14.5t-53.5 39t-37 57.5t-16 71l-3 3v321h67v-314l2 -5q1 -24 10.5 -45.5t25 -38t35 -26t42.5 -9.5q20 0 38.5 8.5t33 23.5t24.5 34.5t13 40.5v333h68l2 -500h-69zM119 667h81v-81h-81v81zM226 668h81v-81h-81v81z" />
    <glyph glyph-name="ydieresis" unicode="&#xff;" horiz-adv-x="535" 
d="M54 -86l51 -6l-5 -29q28 -2 48 7q24 9 45 70l36 87l-188 456h73l150 -366l74 183.5l73 182.5h74l-190 -457l-20 -53l-20 -54q-1 -2 -1.5 -5.5t-0.5 -4.5q-35 -81 -76 -99q-36 -15 -85 -15q-20 0 -50 8zM172 667h81v-81h-81v81zM279 668h81v-81h-81v81z" />
    <glyph glyph-name="idieresis" unicode="&#xef;" horiz-adv-x="177" 
d="M50 500h67l1 -500h-67zM6 662h77v-76h-77v76zM90 662h77v-76h-77v76z" />
    <glyph glyph-name="tilde" unicode="&#x2dc;" horiz-adv-x="334" 
d="M142 565q-21 8 -41 8q-29 0 -61 -20l-23 55q42 23 84 23q21 0 36 -5l29 -10q11 -5 24 -8.5t30 -3.5q27 0 62 21l19 -58q-38 -22 -81 -22q-46 0 -78 20z" />
    <glyph glyph-name="ntilde" unicode="&#xf1;" horiz-adv-x="433" 
d="M250 558q-32 0 -57 13q-11 4 -30 4q-18 0 -37 -8.5t-36 -19.5l-25 54q21 15 47.5 23.5t53.5 8.5q13 0 25 -3l23 -6q8 -3 16.5 -5t19.5 -2q17 0 37.5 7.5t35.5 20.5l29 -53q-23 -15 -50 -24.5t-52 -9.5zM97 430q48 48 117 48q36 0 67 -14.5t54 -40t37 -59.5t15 -72l3 -292
h-68l-1 292v-1q-1 25 -10.5 47t-24.5 38t-35 25t-42 9q-42 0 -73 -30.5t-39 -75.5q0 -73 0.5 -152t0.5 -152h-68q2 149 2.5 257t0.5 164q0 16 -0.5 30t-0.5 25q-1 12 -1 23h66v-69z" />
    <glyph glyph-name="otilde" unicode="&#xf5;" horiz-adv-x="513" 
d="M14 247q0 54 14 104t46 85q33 35 80.5 52.5t95.5 17.5t93 -18t76 -53q32 -35 48 -85t16 -103q0 -51 -15 -102t-46 -87q-31 -35 -78 -51t-94 -16q-48 0 -95.5 15.5t-80.5 51.5q-32 36 -46 86t-14 103zM82 247q0 -38 10 -77t30 -65q23 -24 58 -35.5t70 -11.5t68.5 11
t54.5 36q23 26 32 64t9 78q0 41 -10.5 78t-34.5 63q-21 26 -53.5 38t-65.5 12t-69 -13t-59 -36q-20 -26 -30 -64.5t-10 -77.5zM239 565q-21 8 -41 8q-29 0 -61 -20l-23 55q42 23 84 23q21 0 36 -5l29 -10q11 -5 24 -8.5t30 -3.5q27 0 62 21l19 -58q-38 -22 -81 -22
q-46 0 -78 20z" />
    <glyph glyph-name="oslash" unicode="&#xf8;" horiz-adv-x="513" 
d="M14 247q0 54 18.5 101t50.5 82t75 55.5t91 20.5q51 0 95.5 -24t81.5 -66l-51 -45q-27 31 -59 49t-67 18t-65.5 -15t-53 -41t-35.5 -60.5t-13 -74.5q0 -25 7 -50.5t19 -51.5l-52 -45q-42 75 -42 147zM414 247q0 30 -9.5 59t-26.5 58l54 45q24 -38 37.5 -79t13.5 -83
q0 -52 -18.5 -98.5t-50.5 -81.5t-74.5 -55.5t-90.5 -20.5q-54 0 -102.5 27t-84.5 74l50 45q27 -36 63 -57.5t74 -21.5q34 0 64 15t52.5 40.5t35.5 60t13 73.5zM43 39l-41 52l437 375l44 -53z" />
    <glyph glyph-name="fi" unicode="&#xfb01;" horiz-adv-x="505" 
d="M288 598l-39 10l1 9h-1q-18 -1 -34 -10.5t-27.5 -25.5t-18 -36.5t-6.5 -44.5v-10h112l1 -490h-67l-1 421h-45q0 -103 0.5 -211t0.5 -210h-65l-1 421h-54v69h52v3v18q1 35 13.5 66.5t33 55t47.5 37.5t58 14h9q8 0 19 -0.5t34 -4.5z" />
    <glyph glyph-name="fl" unicode="&#xfb02;" horiz-adv-x="490" 
d="M308 0h-69l-1 421h-75q0 -103 0.5 -211t0.5 -210h-66v421h-56v69h54v3v17q-3 53 9.5 86t30.5 55q21 23 47 27.5t55 5.5h69zM238 617v14l14 -14h-14zM163 490h75v127h-3q-15 0 -29.5 -2.5t-23.5 -12.5q-8 -13 -14.5 -28.5t-6.5 -40.5v-14t2 -17v-12z" />
    <glyph glyph-name="exclam" unicode="!" horiz-adv-x="176" 
d="M47 680h62v-568h-62v568zM47 108h28q0 10 0.5 11.5t2.5 1.5h31l-1 -121h-61v108z" />
    <glyph glyph-name="exclamdown" unicode="&#xa1;" horiz-adv-x="160" 
d="M109 0h-62v568h62v-568zM109 573h-28q0 -11 -1 -12.5t-2 -1.5h-31l1 121h61v-107z" />
    <glyph glyph-name="quotesingle" unicode="'" horiz-adv-x="121" 
d="M25 680h74l1 -158h-75v158z" />
    <glyph glyph-name="parenleft" unicode="(" horiz-adv-x="260" 
d="M201 642q-32 -42 -47.5 -78t-25.5 -79q-11 -44 -16.5 -94t-5.5 -104q0 -57 7 -113.5t18 -101.5t29.5 -81t47.5 -68l-48 -48q-28 27 -51 69t-40 95.5t-26.5 116.5t-9.5 131q0 64 9 125t25.5 113.5t38 95t47.5 70.5z" />
    <glyph glyph-name="parenright" unicode=")" horiz-adv-x="246" 
d="M88 691q25 -28 47 -70.5t38.5 -95t25.5 -113.5t9 -125q0 -68 -9.5 -131t-26 -116.5t-39.5 -95.5t-51 -69l-52 48q32 32 50 67.5t29 81.5q12 46 19 100.5t7 114.5q0 54 -5.5 104t-16.5 94t-25 79t-46 73z" />
    <glyph glyph-name="asciitilde" unicode="~" horiz-adv-x="347" 
d="M219 275q-38 0 -63 14q-13 4 -34 4q-41 5 -75 -24l-30 56q24 17 51 23t54 6q16 0 28.5 -3.5t24.5 -7.5q9 -3 19 -5.5t22 -2.5q20 0 40 4.5t39 21.5l26 -56q-23 -17 -49 -23.5t-53 -6.5z" />
    <glyph glyph-name="onequarter" unicode="&#xbc;" horiz-adv-x="382" 
d="M26 446l66 60h39v-305h-48v233l-21 -19zM270 257l-57 -98h56zM264 338h53l-1 -179h33v-47h-33v-115h-47v115h-115l1 37z" />
    <glyph glyph-name="onehalf" unicode="&#xbd;" horiz-adv-x="355" 
d="M3 443l77 64h39v-306h-48v236l-32 -26zM334 56v-55h-212v46l140 156q8 9 12.5 21t4.5 21q0 11 -5 22.5t-13 20t-20 13t-25 1.5q-11 0 -18.5 -1t-15.5 -7l23 -22l-44 -28l-57 56l25 20t28.5 20t29.5 15t29 6q24 0 45.5 -9.5t37.5 -25t25.5 -36.5t9.5 -45q0 -23 -10 -45
t-21 -36l-95 -108h126z" />
    <glyph glyph-name="bullet" unicode="&#x2022;" horiz-adv-x="209" 
d="M33 449h139v-139h-139v139z" />
    <glyph glyph-name="periodcentered" unicode="&#xb7;" horiz-adv-x="225" 
d="M55 365h112v-111h-112v111z" />
    <glyph glyph-name="degree" unicode="&#xb0;" horiz-adv-x="250" 
d="M80 575q0 -16 13.5 -29t32.5 -13q14 0 27 13t13 29q0 18 -13 32.5t-27 14.5q-19 0 -32.5 -14t-13.5 -33zM29 575q0 42 27 68.5t70 26.5q37 0 64.5 -26.5t27.5 -68.5q0 -19 -7.5 -35.5t-20 -29t-29.5 -20t-35 -7.5q-43 0 -70 27t-27 65z" />
    <glyph glyph-name="brokenbar" unicode="&#xa6;" horiz-adv-x="131" 
d="M41 387v295h52v-295h-52zM94 314l-1 -313h-52l1 313h52z" />
    <glyph glyph-name="dagger" unicode="&#x2020;" horiz-adv-x="486" 
d="M60 528v53l150 -1q0 25 0.5 53t0.5 50h53l-1 -103q37 0 77.5 0.5t75.5 0.5v-53l-153 -1v-526h-53v526z" />
    <glyph glyph-name="threequarters" unicode="&#xbe;" horiz-adv-x="458" 
d="M73 208q7 -4 14.5 -6.5t16.5 -2.5q21 0 38 14.5t17 33.5q0 20 -15 34t-35 16h-34v55h34q20 2 35.5 15t15.5 30t-17 30.5t-38 13.5q-9 0 -16.5 -2.5t-14.5 -5.5l8 -14l-35 -18l-42 46q44 47 100 47q23 0 43.5 -7.5t35.5 -20.5t24 -31t9 -38q0 -50 -37 -75q16 -15 25 -33.5
t9 -41.5q0 -22 -9 -40.5t-24 -32t-35 -21.5t-42 -8q-29 0 -53.5 13t-44.5 36l39 51l38 -22zM342 260l-57 -97h56zM336 342h53l-1 -179h33v-47h-33v-115h-47v115h-115l1 37z" />
    <glyph glyph-name="trademark" unicode="&#x2122;" horiz-adv-x="417" 
d="M135 453h-59v164h-53v56h164v-56h-52v-164zM360 673v-220h-56v64q-5 -14 -9.5 -31l-9.5 -35h-36l-12 42v-40h-58v220h49l41 -118q16 47 27 76.5t18 41.5h46z" />
    <glyph glyph-name="Ydieresis" unicode="&#x178;" horiz-adv-x="681" 
d="M626 661l-260 -401l4 -260h-74v260l-257 399l61 38l233 -365l116.5 181.5l116.5 182.5zM233 770h81v-81h-81v81zM340 771h81v-81h-81v81z" />
    <glyph glyph-name="paragraph" unicode="&#xb6;" horiz-adv-x="382" 
d="M332 2h-66v677h66v-677zM273 0h-89l-1 342q-17 0 -33 3t-38 9q-52 13 -76 37q-23 24 -36 54.5t-13 65.5t13.5 66.5t35.5 53.5q12 12 30.5 20.5t45.5 16.5q49 12 85 12h75zM171 616q-9 -1 -20 -3t-25 -5q-17 -4 -28.5 -9.5t-17.5 -10.5q-12 -13 -19 -31.5t-7 -41.5
q0 -44 26 -73q9 -11 47 -20q25 -7 44 -9v203z" />
    <glyph glyph-name="perthousand" unicode="&#x2030;" horiz-adv-x="833" 
 />
    <glyph glyph-name="Adieresis" unicode="&#xc4;" 
d="M425 232l-127 333l-121 -332zM271 691h53l255 -691h-72l-57 163q-75 0 -148 0.5t-149 0.5l-64 -164h-72zM191 780h81v-81h-81v81zM298 781h81v-81h-81v81z" />
    <glyph glyph-name="Edieresis" unicode="&#xcb;" horiz-adv-x="485" 
d="M222 249h-120v-180h342l1 -69h-411l-1 691h411v-67h-342v-306h120v-69zM135 781h81v-81h-81v81zM242 782h81v-81h-81v81z" />
    <glyph glyph-name="Idieresis" unicode="&#xcf;" horiz-adv-x="138" 
d="M104 0h-69l-1 691h69zM-31 780h81v-81h-81v81zM76 781h81v-81h-81v81z" />
    <glyph glyph-name="Odieresis" unicode="&#xd6;" horiz-adv-x="690" 
d="M517 559q-32 35 -79 50.5t-98 15.5t-101 -16t-83 -54t-47.5 -94t-14.5 -116t15 -116.5t47 -94.5q33 -38 82 -55.5t102 -17.5t102.5 18t81.5 56q33 38 48.5 94t15.5 116q0 63 -16.5 119t-54.5 94v1zM567 81q-44 -48 -103.5 -69t-123.5 -21q-63 0 -125.5 22t-105.5 70
q-44 49 -64.5 118t-20.5 144q0 36 4.5 72t14.5 69.5t25.5 63t37.5 53.5q43 49 105.5 70.5t128.5 21.5q67 0 129 -23.5t105 -71.5q42 -48 61.5 -115.5t19.5 -139.5q0 -78 -21 -147t-67 -117zM238 781h81v-81h-81v81zM345 782h81v-81h-81v81z" />
    <glyph glyph-name="Udieresis" unicode="&#xdc;" horiz-adv-x="598" 
d="M111 182q4 -24 18.5 -46t38.5 -38.5t56 -26.5t71 -10q36 0 67 10t54.5 26.5t38 38.5t18.5 46v509h69v-512q-3 -38 -22.5 -72t-52 -60t-76.5 -41t-96 -15q-53 0 -98.5 15t-79.5 40.5t-54.5 60t-23.5 72.5v512h72v-509zM192 780h81v-81h-81v81zM299 781h81v-81h-81v81z" />
    <glyph glyph-name="Icircumflex" unicode="&#xce;" horiz-adv-x="138" 
d="M104 0h-69l-1 691h69z" />
    <glyph glyph-name="Iacute" unicode="&#xcd;" horiz-adv-x="154" 
d="M104 0h-69l-1 691h69zM119 711l-75 2l84 110h81z" />
    <glyph glyph-name="Igrave" unicode="&#xcc;" horiz-adv-x="131" 
d="M112 0h-69l-1 691h69zM-42 809l62 47l116 -111l-53 -36z" />
    <glyph glyph-name="Ntilde" unicode="&#xd1;" horiz-adv-x="537" 
d="M100 691l316 -541v541h69l1 -691h-64l-316 545q0 -134 0.5 -274t0.5 -271h-68l-1 691h62zM244 723q-21 8 -41 8q-29 0 -61 -20l-23 55q42 23 84 23q21 0 36 -5l29 -10q11 -5 24 -8.5t30 -3.5q27 0 62 21l19 -58q-38 -22 -81 -22q-46 0 -78 20z" />
    <glyph glyph-name="onesuperior" unicode="&#xb9;" horiz-adv-x="263" 
d="M50 597l102 83h58v-311h-68v217l-43 -36z" />
    <glyph glyph-name="plus" unicode="+" horiz-adv-x="452" 
d="M255 125h-68v133h-131v67h131v132h68v-132h132v-67h-132v-133z" />
    <glyph glyph-name="hyphen" unicode="-" horiz-adv-x="421" 
d="M44 258v67h328v-67h-328z" />
    <glyph glyph-name="fraction" unicode="&#x2044;" horiz-adv-x="382" 
d="M100 -4l-63 25l240 662l68 -20z" />
    <glyph glyph-name="slash" unicode="/" horiz-adv-x="378" 
d="M100 -4l-63 25l240 662l66 -20z" />
    <glyph glyph-name="ampersand" unicode="&#x26;" horiz-adv-x="597" 
d="M478 144v-1l1 -2zM243 0q-47 0 -86 15.5t-67.5 42t-44 61t-15.5 73.5q0 59 36.5 99.5t117.5 75.5l13 6l-4 5q-25 26 -39.5 46.5t-23.5 46.5q-8 27 -10.5 41t-2.5 27q0 27 11.5 53t32.5 46.5t50.5 33t66.5 12.5q34 0 62 -11t48 -30t31 -44.5t11 -53.5q0 -45 -29 -92.5
t-96 -83.5l-6 -3l130 -149l4 8q8 14 10.5 21t5.5 14l-37 16l26 59l103 -38q-14 -42 -29 -79t-32 -61q-2 -8 -2 -11q6 -9 10.5 -14.5l10 -12t14.5 -16l24 -24.5v1l23 -24l-37 -52l-49 48.5l-35 36.5h-1l-4 4l-4 -4q-39 -46 -86 -68t-101 -21zM356 543q0 36 -22.5 60t-59.5 24
q-35 0 -59 -23t-24 -57q2 -40 35 -92l-2 2q11 -14 20 -23.5t20 -23.5q3 3 5 3l-1 -1q26 15 43 28.5t26 34.5q11 22 15 36.5t4 31.5zM228 325q-66 -22 -92.5 -56.5t-26.5 -72.5q0 -24 9.5 -48t26.5 -43t42 -31t55 -12q40 0 80 23t65 61l-1 -1q0 2 2 4l-154 179z" />
    <glyph glyph-name="Otilde" unicode="&#xd5;" horiz-adv-x="690" 
d="M517 559q-32 35 -79 50.5t-98 15.5t-101 -16t-83 -54t-47.5 -94t-14.5 -116t15 -116.5t47 -94.5q33 -38 82 -55.5t102 -17.5t102.5 18t81.5 56q33 38 48.5 94t15.5 116q0 63 -16.5 119t-54.5 94v1zM567 81q-44 -48 -103.5 -69t-123.5 -21q-63 0 -125.5 22t-105.5 70
q-44 49 -64.5 118t-20.5 144q0 36 4.5 72t14.5 69.5t25.5 63t37.5 53.5q43 49 105.5 70.5t128.5 21.5q67 0 129 -23.5t105 -71.5q42 -48 61.5 -115.5t19.5 -139.5q0 -78 -21 -147t-67 -117zM320 724q-21 8 -41 8q-29 0 -61 -20l-23 55q42 23 84 23q21 0 36 -5l29 -10
q11 -5 24 -8.5t30 -3.5q27 0 62 21l19 -58q-38 -22 -81 -22q-46 0 -78 20z" />
    <glyph glyph-name="Eth" unicode="&#xd0;" horiz-adv-x="653" 
d="M47 263v69h52v359h232q51 -1 103 -28.5t86 -75.5q33 -46 51.5 -107.5t18.5 -132.5t-18 -132.5t-52 -109.5q-33 -46 -84 -74t-102 -31h-234l-1 263h-52zM168 622v-290q29 0 61 -1t60 -1v-69l-121 2v-194q43 0 82.5 1t82.5 1q36 1 74 22.5t61 57.5q25 38 39 88t14 108
q0 57 -14 107t-39 88q-24 37 -62 58t-75 22h-163z" />
    <glyph glyph-name="plusminus" unicode="&#xb1;" horiz-adv-x="452" 
d="M254 308h-67v126h-120v68h120v118h67v-118h118v-68h-118v-126zM66 145v68h305v-68h-305z" />
    <glyph glyph-name="asterisk" unicode="*" horiz-adv-x="471" 
d="M263 408h-68v51l-35 -35l-50 47l36 38h-50v67h52l-36 35l48 50l35 -36v55h68v-56l41 37l49 -46l-40 -38h52v-68h-53l41 -39l-47 -47l-43 40v-55z" />
    <glyph glyph-name="multiply" unicode="&#xd7;" horiz-adv-x="367" 
d="M83 162l-49 46l92 103l-46 50.5l-44 49.5l46 49l90 -100l89 99l49 -46l-92 -102l47 -52t45 -51l-47 -47l-91 101z" />
    <glyph glyph-name="minus" unicode="&#x2212;" horiz-adv-x="417" 
d="M39 258v67h333v-67h-333z" />
    <glyph glyph-name="underscore" unicode="_" horiz-adv-x="513" 
d="M25 0l-1 68h442l1 -68h-442z" />
    <glyph glyph-name="backslash" unicode="\" horiz-adv-x="371" 
d="M34 662l64 21l245 -666l-66 -20z" />
    <glyph glyph-name="endash" unicode="&#x2013;" horiz-adv-x="416" 
d="M40 258v67h334v-67h-334z" />
    <glyph glyph-name="emdash" unicode="&#x2014;" horiz-adv-x="532" 
d="M38 243v68h450v-68h-450z" />
    <glyph glyph-name="divide" unicode="&#xf7;" horiz-adv-x="425" 
d="M159 237h88v-89h-88v89zM159 437h88v-89h-88v89zM34 258v67h335v-67h-335z" />
    <glyph glyph-name="ellipsis" unicode="&#x2026;" horiz-adv-x="435" 
d="M32 89h88l1 -89h-88zM168 89h89l1 -89h-89zM305 89h89l1 -89h-89z" />
    <glyph glyph-name="at" unicode="@" horiz-adv-x="754" 
d="M492 203q20 0 48.5 25t47.5 62h-1q5 10 9.5 25.5t7.5 32t5 32t2 26.5q0 41 -16.5 77.5t-46.5 64.5t-71.5 44t-91.5 16q-57 0 -106 -21.5t-85 -59t-56 -89t-20 -111.5q0 -117 72 -183t204 -66q82 0 141 30t88 74h86l-11 -27q-16 -30 -44.5 -58t-67.5 -49t-87 -34t-104 -13
q-78 0 -143 20.5t-111.5 61t-72.5 100.5t-26 139q0 76 24.5 142t70 115t109 77t141.5 28q59 0 113.5 -18.5t96 -54.5t66 -88t24.5 -118q0 -45 -15 -91t-41.5 -84.5t-63.5 -65t-81 -31.5q-14 0 -36 4.5t-37 18.5q-17 -12 -36 -19t-42 -7q-27 0 -51.5 11t-43 29.5t-29 43.5
t-10.5 53q0 31 11.5 50t28.5 37q20 17 44.5 27.5t53.5 10.5h62q-1 25 -4.5 44.5t-12.5 27.5q-8 8 -24 15t-37 0q-5 -2 -11.5 -3.5t-11.5 -3.5l15 -23l-40 -35l-60 76q38 35 69 49t55 14q27 0 46.5 -9.5t32.5 -18.5q23 -19 35.5 -53t14.5 -76h1q-1 -11 -1 -22.5v-23.5v-85
v-11.5t-1 -11.5v1q-2 -16 0.5 -28t24.5 -12zM406 326h-67q-31 0 -54 -19q-21 -20 -21 -40q0 -31 20.5 -51t50.5 -20q29 0 50 20t21 51v59z" />
    <glyph glyph-name="yen" unicode="&#xa5;" horiz-adv-x="681" 
d="M180 208l116 1v8q-28 0 -59 -0.5t-57 -0.5v70l116 1v18l-128.5 172.5l-127.5 172.5l60 35l229 -314l231 313l69 -30l-265 -349v-18h118v-70h-118v-8h118v-69h-118q0 -34 0.5 -71t0.5 -69h-68l-1 140q-28 0 -59 -0.5t-57 -0.5v69z" />
    <glyph glyph-name="sterling" unicode="&#xa3;" horiz-adv-x="556" 
d="M211 243v-175h294l1 -68h-362l-1 243h-107v68h107v369h68v-369h140v-68h-140z" />
    <glyph glyph-name="thorn" unicode="&#xfe;" horiz-adv-x="517" 
d="M120 460q26 12 57.5 19.5t67.5 7.5q50 -1 94.5 -22t74.5 -55q29 -32 45.5 -69.5t16.5 -89.5q0 -55 -16.5 -92t-46.5 -69q-29 -32 -73 -52.5t-95 -20.5q-38 0 -68.5 8t-57.5 20v-230h-67v866h68v-221zM120 128q-1 -8 9 -15.5t27 -13t40.5 -9.5t49.5 -5h-1q35 1 66.5 16
t51.5 37q21 23 32.5 48t11.5 64q0 37 -11 62t-34 50q-20 26 -51 41t-66 15q-49 0 -85.5 -10t-42.5 -27z" />
    <glyph glyph-name="Oslash" unicode="&#xd8;" horiz-adv-x="690" 
d="M555 89q-43 -48 -98.5 -73t-120.5 -25q-21 0 -44.5 4t-43.5 11q-2 -7 -4 -12.5t-3 -8.5l-63 21l10 28q-38 20 -74 49.5t-59 67.5q-24 42 -31 91.5t-7 102.5q2 36 7.5 71.5t15.5 68.5t25.5 62.5t36.5 53.5q44 48 106 71t128 23q44 0 89 -14l9 24l62 -17l-12 -31
q92 -42 136 -122.5t38 -190.5q-8 -77 -32.5 -142t-70.5 -113zM461 590l-95 -259.5l-95 -259.5q29 -10 65 -10q54 0 99 22.5t78 61t53 90.5t25 111q1 8 1 14v14q0 56 -18.5 96t-44.5 72h1q-7 8 -20.5 18l-28.5 21zM336 625q-51 0 -101 -17t-83 -55t-47 -93.5t-18 -115.5
q0 -42 5 -81.5t21 -71.5q16 -26 44 -51t54 -41l95.5 257.5l94.5 258.5q-16 5 -33 7.5t-32 2.5z" />
    <glyph glyph-name="daggerdbl" unicode="&#x2021;" horiz-adv-x="408" 
d="M37 466h308v-70h-308v70zM37 308h308v-69h-308v69zM158 0l-1 680h70l1 -680h-70z" />
    <glyph glyph-name="logicalnot" unicode="&#xac;" horiz-adv-x="662" 
d="M598 168h-68v157h-487v68h555v-225z" />
    <glyph glyph-name="guilsinglright" unicode="&#x203a;" horiz-adv-x="343" 
d="M329 248l-252 -233l-48 49l204 184l-102.5 95l-101.5 95l50 46z" />
    <glyph glyph-name="guillemotright" unicode="&#xbb;" horiz-adv-x="524" 
d="M331 278l-228 -253l-51 45l182 200l-54 40.5l-56.5 43.5l-56.5 43l-53 40l45 51zM491 278l-228 -253l-51 45l182 200l-54 40.5l-56.5 43.5l-56.5 43l-53 40l46 51z" />
    <glyph glyph-name="greater" unicode="&#x3e;" horiz-adv-x="336" 
d="M320 248l-252 -236l-48 49l204 187l-204 194l50 46z" />
    <glyph glyph-name="less" unicode="&#x3c;" horiz-adv-x="330" 
d="M260 489l50 -47l-203 -194l203 -189l-48 -49l-251 238z" />
    <glyph glyph-name="Thorn" unicode="&#xde;" horiz-adv-x="535" 
d="M120 468q26 12 58 19.5t69 7.5q51 -1 95.5 -22.5t76.5 -55.5q29 -33 45.5 -71t16.5 -91q0 -56 -16.5 -93.5t-46.5 -70.5q-31 -32 -75.5 -53t-95.5 -21q-39 0 -70 8.5t-58 20.5v-234h-68v880h69v-224zM120 130q-1 -9 9 -16.5t27.5 -13t41 -9.5t50.5 -5h-1q35 1 67 16.5
t53 37.5q21 23 32.5 48.5t11.5 65.5q0 38 -11 63t-34 51q-21 26 -52.5 41.5t-66.5 15.5q-25 0 -47.5 -3t-40 -8t-28.5 -12t-14 -15z" />
    <glyph glyph-name="guilsinglleft" unicode="&#x2039;" horiz-adv-x="352" 
d="M279 484l50 -46l-204 -190l204 -184l-48 -49l-252 233z" />
    <glyph glyph-name="asciicircum" unicode="^" horiz-adv-x="551" 
d="M269 685l247 -228l-49 -49l-198 183l-203 -183l-46 50z" />
    <glyph glyph-name="circumflex" unicode="&#x2c6;" horiz-adv-x="268" 
d="M133 670l124 -121l-46 -44l-77 78l-78 -78l-44 45z" />
    <glyph glyph-name="caron" unicode="&#x2c7;" horiz-adv-x="276" 
d="M136 506l-124 120l46 45l77 -79l78 79l44 -46z" />
    <glyph glyph-name="Lslash" unicode="&#x141;" horiz-adv-x="570" 
d="M418 691v-29h-43v29h43zM84 26h-13l147 283v353h11v-247l24 -6l131 253h11l-166 -332v-290h274v-11h-284l-1 198l-24 6z" />
    <glyph glyph-name="Zcaron" unicode="&#x17d;" horiz-adv-x="548" 
d="M141 69h375l-1 -69h-498l387 622q-92 0 -188.5 -1t-187.5 -1v69l440 2h59zM269 697l-124 120l46 45l77 -79l78 79l44 -46z" />
    <glyph glyph-name="zcaron" unicode="&#x17e;" horiz-adv-x="452" 
d="M35 59l280 372h-289v69h383v-59l-280 -371l290 2l1 -69l-384 -3zM222 506l-124 120l46 45l77 -79l78 79l44 -46z" />
    <glyph glyph-name="florin" unicode="&#x192;" horiz-adv-x="328" 
d="M247 630q-1 -1 -1 -3zM282 586l-45 16l5 14q-34 -5 -56.5 -38t-22.5 -78v-190h124v-68h-124q0 -60 0.5 -122t0.5 -120h-66v171v71h-61v68h72q-9 2 -10.5 45t-1.5 127v5q0 2 -0.5 3.5t-0.5 2.5v18q1 35 13.5 66.5t33 55t47.5 37.5t58 14h9q8 0 19.5 -0.5t34.5 -4.5z" />
    <glyph glyph-name="Scaron" unicode="&#x160;" horiz-adv-x="485" 
d="M107 159l35 -43l-21 -19q17 -14 43.5 -25.5t66.5 -11.5q28 0 53.5 9t44.5 24.5t30.5 36.5t11.5 46t-10 47t-28 38.5t-42.5 26.5t-53.5 11q-45 4 -82 21t-65 42q-27 27 -42 65t-15 76q0 41 17 76t47 60.5t69.5 40t84.5 14.5q59 0 106.5 -23t84.5 -65l-66 -69l-45 40l20 20
q-17 12 -41.5 21.5t-58.5 9.5q-29 0 -55.5 -9.5t-46.5 -25.5t-32.5 -38.5t-12.5 -47.5q0 -26 10 -51.5t29 -44.5h-1q19 -18 45.5 -29.5t56.5 -14.5q41 -4 77.5 -20t63.5 -41t42.5 -57.5t15.5 -68.5q0 -39 -17 -73.5t-46 -60t-68 -40.5t-83 -15q-62 0 -114.5 30t-86.5 78z
M238 697l-124 120l46 45l77 -79l78 79l44 -46z" />
    <glyph glyph-name="scaron" unicode="&#x161;" horiz-adv-x="417" 
d="M317 373l-31 33l1 13q-14 8 -33.5 13t-45.5 5q-42 0 -72 -28q-27 -24 -27 -55q0 -14 7 -27t21 -23l-1 1q14 -9 30.5 -12t35.5 -6q2 -1 5 -1.5t5 -0.5q35 -2 65 -14t51.5 -31.5t33.5 -45t12 -54.5t-13.5 -56.5t-36.5 -48.5t-54 -33t-65 -10q-48 1 -92.5 20.5t-74.5 54.5
l47 73l48 -32l-13 -26q14 -9 34.5 -16t48.5 -7q44 0 75 25h-1q29 23 29 56q0 31 -28.5 54.5t-74.5 25.5q-3 0 -7.5 1t-7.5 1q-29 4 -54.5 10.5t-46.5 24.5q-22 21 -34.5 46t-12.5 53q0 14 4 30t11 31.5t17 29t22 22.5h-1q50 36 119 36q48 0 91.5 -20.5t75.5 -52.5zM205 506
l-124 120l46 45l77 -79l78 79l44 -46z" />
    <glyph glyph-name="ecircumflex" unicode="&#xea;" horiz-adv-x="456" 
d="M232 58q14 0 30 3t30 8h-1q9 3 21 8.5t19 9.5l-13 31l54 26l39 -89q-29 -19 -51 -30.5t-37 -16.5q-29 -10 -65 -16h-26q-54 0 -92 18.5t-63.5 50.5t-39 75.5t-17.5 93.5v19q0 53 9 102.5t36 84.5q28 36 71.5 53.5t85.5 17.5t85.5 -13.5t72.5 -50.5q23 -29 36.5 -63.5
t13.5 -82.5q0 -9 -1 -21.5t-3 -27.5l-7 -31h-329q4 -35 12.5 -64t25 -50t42 -33t62.5 -12zM357 284q3 16 3 29q0 29 -10 49t-26 39q-18 23 -47 30t-55 7t-55 -10t-49 -37q-19 -25 -23.5 -51t-5.5 -56h268zM221 670l124 -121l-46 -44l-77 78l-78 -78l-44 45z" />
    <glyph glyph-name="Atilde" unicode="&#xc3;" 
d="M347 742q-17 0 -32 3.5t-28 8.5t-31 5t-37.5 -7t-34.5 -19l-29 53q23 15 48 23.5t53 8.5q17 0 29 -2t23 -7h-1l18 -5.5t20 -2.5q20 0 39.5 7t36.5 21l26 -55q-46 -32 -100 -32zM425 232l-127 333l-121 -332zM271 691h53l255 -691h-72l-57 163q-75 0 -148 0.5t-149 0.5
l-64 -164h-72z" />
    <glyph glyph-name="AE" unicode="&#xc6;" horiz-adv-x="1081" 
d="M515 624h-147l-108 -311h246zM917 691v-67h-342v-222h145v-69h-145v-264h342l1 -69h-411l-1 244h-271l-94 -244h-72l254 691h594z" />
    <glyph glyph-name="acircumflex" unicode="&#xe2;" horiz-adv-x="406" 
d="M296 22q-20 -14 -46 -22.5t-55 -8.5q-34 0 -64 12.5t-52.5 33.5t-36 49.5t-13.5 60.5q0 35 14 64t37.5 50t55 32.5t66.5 11.5l52 -5l37 -11l3 -3q1 7 1 12.5v12.5q0 52 -24 88.5t-63 38.5q-23 0 -46 -3.5t-46 -9.5q2 -8 4.5 -15.5t3.5 -12.5l-53 -13l-27 89
q49 16 90 24.5t75 8.5q30 -1 57.5 -15t48 -38t33.5 -55.5t15 -67.5v-10q-1 -12 -1 -23.5v-25.5q-1 -23 -1 -52v-58v-52q1 -8 1 -21v-27q0 -10 0.5 -28.5t0.5 -32.5h-67v22zM293 211l-6.5 6.5t-8.5 6.5l-40 12l3 -1l-40 3q-43 -1 -73 -25.5t-30 -65.5q0 -37 28 -62.5
t69 -25.5q42 0 71 25.5t29 62.5zM196 670l124 -121l-46 -44l-77 78l-78 -78l-44 45z" />
    <glyph glyph-name="germandbls" unicode="&#xdf;" horiz-adv-x="520" 
d="M361 579q-15 16 -42.5 24.5t-53.5 10.5h-154v-219h155q26 1 53 9.5t42 23.5q16 15 25 35t9 43q0 20 -9 39t-25 34zM112 -139h-68l-1 819h223q38 -1 77.5 -15.5t64.5 -37.5q26 -24 40.5 -55t14.5 -66q0 -46 -20.5 -83t-56.5 -62q43 -25 66.5 -68t23.5 -94q0 -82 -57 -139
q-27 -26 -68.5 -41.5t-84.5 -16.5l-93 -2v68h93q28 1 56.5 12t47.5 29q18 19 28 41.5t10 48.5q0 52 -40 87q-19 18 -52 28.5t-67 12.5h-138z" />
    <glyph glyph-name="guillemotleft" unicode="&#xab;" horiz-adv-x="532" 
d="M446 483l45 -51l-219 -162l91 -99.5l91 -97.5l-51 -46l-229 251zM286 483l45 -51l-220 -162l91.5 -99.5l90.5 -97.5l-51 -46l-228 251z" />
    <glyph glyph-name="ucircumflex" unicode="&#xfb;" horiz-adv-x="450" 
d="M327 41q-23 -23 -53 -36t-63 -13q-35 0 -65.5 14.5t-53.5 39t-37 57.5t-16 71l-3 3v321h67v-314l2 -5q1 -24 10.5 -45.5t25 -38t35 -26t42.5 -9.5q20 0 38.5 8.5t33 23.5t24.5 34.5t13 40.5v333h68l2 -500h-69zM218 670l124 -121l-46 -44l-77 78l-78 -78l-44 45z" />
    <glyph glyph-name="ocircumflex" unicode="&#xf4;" horiz-adv-x="513" 
d="M14 247q0 54 14 104t46 85q33 35 80.5 52.5t95.5 17.5t93 -18t76 -53q32 -35 48 -85t16 -103q0 -51 -15 -102t-46 -87q-31 -35 -78 -51t-94 -16q-48 0 -95.5 15.5t-80.5 51.5q-32 36 -46 86t-14 103zM82 247q0 -38 10 -77t30 -65q23 -24 58 -35.5t70 -11.5t68.5 11
t54.5 36q23 26 32 64t9 78q0 41 -10.5 78t-34.5 63q-21 26 -53.5 38t-65.5 12t-69 -13t-59 -36q-20 -26 -30 -64.5t-10 -77.5zM250 670l124 -121l-46 -44l-77 78l-78 -78l-44 45z" />
    <glyph glyph-name="eth" unicode="&#xf0;" horiz-adv-x="489" 
d="M28 475q0 43 16.5 81.5t45.5 67t67 45t82 16.5q42 0 78.5 -17t64.5 -45.5t46 -66t23 -77.5q2 -31 2.5 -66t0.5 -67v-26q0 -39 -2.5 -76t-8.5 -71q-9 -40 -29 -73t-49.5 -57t-66 -37t-76.5 -13q-25 0 -53 7.5t-55.5 22t-53.5 36t-47 50.5l83 79l49 -48l-37 -32
q8 -11 18.5 -18t27.5 -13q20 -7 38.5 -11t35.5 -4q58 0 98.5 36t52.5 91v-1q5 32 7.5 67t3.5 72q-29 -28 -68.5 -44t-84.5 -16q-41 0 -78.5 15.5t-66 43t-46 64t-18.5 78.5v7zM240 616q-31 0 -57.5 -12t-46 -32t-30.5 -46t-11 -55q1 -29 12.5 -53.5t31 -43.5t44.5 -29.5
t54 -10.5q31 0 58 11t46.5 30.5t30.5 45.5t11 56q0 28 -12 53.5t-31.5 44.5t-45.5 30t-54 11z" />
    <glyph glyph-name="icircumflex" unicode="&#xee;" horiz-adv-x="177" 
d="M50 500h67l1 -500h-67zM85 671l110 -110l-45 -44l-65 66l-65 -66l-43 45z" />
    <glyph glyph-name="dotlessi" unicode="&#x131;" horiz-adv-x="343" 
d="M35 48v68h160v495h68v-563h-228z" />
    <glyph glyph-name="numbersign" unicode="#" horiz-adv-x="714" 
d="M21 227h130q8 26 16 48.5l15.5 45l15 45.5l16.5 49h-115v70h138l28 76l28 75h72l-54 -151h196l28 76l28 75h72l-54 -151q22 0 45.5 0.5t42.5 0.5v-71h-113q-8 -26 -16 -48.5l-15.5 -45l-15.5 -45.5l-17 -49h106v-69h-129l-52 -158h-74l54 158h-198l-52 -158h-74l54 158
h-106v69zM222 227h198l16.5 48.5l15.5 45l15.5 45.5l16.5 49h-198z" />
    <glyph glyph-name="atilde" unicode="&#xe3;" horiz-adv-x="406" 
d="M178 542q-6 2 -13.5 3t-15.5 1q-17 0 -37.5 -7.5t-35.5 -20.5l-29 53q21 15 47.5 24.5t53.5 9.5q14 0 25 -3l22 -6q16 -6 34 -6q20 0 41.5 7.5t38.5 23.5l25 -54q-21 -17 -48 -26.5t-53 -9.5q-17 0 -30.5 3t-26.5 8h2zM296 22q-20 -14 -46 -22.5t-55 -8.5q-34 0 -64 12.5
t-52.5 33.5t-36 49.5t-13.5 60.5q0 35 14 64t37.5 50t55 32.5t66.5 11.5l52 -5l37 -11l3 -3q1 7 1 12.5v12.5q0 52 -24 88.5t-63 38.5q-23 0 -46 -3.5t-46 -9.5q2 -8 4.5 -15.5t3.5 -12.5l-53 -13l-27 89q49 16 90 24.5t75 8.5q30 -1 57.5 -15t48 -38t33.5 -55.5t15 -67.5
v-10q-1 -12 -1 -23.5v-25.5q-1 -23 -1 -52v-58v-52q1 -8 1 -21v-27q0 -10 0.5 -28.5t0.5 -32.5h-67v22zM293 211l-6.5 6.5t-8.5 6.5l-40 12l3 -1l-40 3q-43 -1 -73 -25.5t-30 -65.5q0 -37 28 -62.5t69 -25.5q42 0 71 25.5t29 62.5z" />
    <glyph glyph-name="dotaccent" unicode="&#x2d9;" horiz-adv-x="148" 
d="M28 645h88v-88h-88v88z" />
    <glyph glyph-name="bracketleft" unicode="[" horiz-adv-x="210" 
d="M157 77q-1 -13 38 -6v-71q-21 0 -34 1t-21.5 3t-13.5 4.5t-10 5.5q-12 8 -19.5 19t-7.5 25v229q0 13 -8 20.5t-19 7.5h-33v68h33q11 0 19 8t8 20v219q4 23 26.5 37t76.5 12v-71q-37 6 -34 -17v-195q-6 -13 -12.5 -20l-14.5 -15l-12 -11l15 -14h-1q9 -8 14.5 -15t10.5 -20
z" />
    <glyph glyph-name="bracketright" unicode="]" horiz-adv-x="183" 
d="M45 602q2 14 -39 6l1 71q21 0 34 -1t21 -3t13 -4.5t11 -6.5v1q12 -8 19.5 -18t7.5 -26v-229q0 -13 8 -20.5t19 -7.5h33v-68h-33q-11 0 -19 -8t-8 -20v-219q-4 -23 -26.5 -37t-76.5 -12v72q37 -7 34 17v194q6 13 12.5 20l14.5 15l11 10l-14 15h1q-9 8 -14.5 15t-10.5 20z
" />
    <glyph glyph-name="lslash" unicode="&#x142;" horiz-adv-x="380" 
d="M153 680h68v-186l70 122h77l-147 -258v-358h-67l-1 176l-65 -112h-83l148 253v363z" />
    <glyph glyph-name="registered" unicode="&#xae;" horiz-adv-x="833" 
 />
    <glyph glyph-name="percent" unicode="%" horiz-adv-x="382" 
d="M289 83q0 8 -15 16q-13 -8 -13 -16q0 -14 14 -14t14 14zM275 156q35 -9 53.5 -28.5t18.5 -43.5q0 -29 -21 -50t-50 -21t-50 21t-21 50q0 23 19.5 43t48.5 29v1q0 -1 1 -1q0 1 1 1v-1zM79 594q0 -8 14 -16q14 7 14 16q0 14 -14 14t-14 -14zM93 521q-35 9 -53.5 28
t-18.5 44q0 29 21 50t50 21t50 -21t21 -50q0 -23 -19.5 -43t-48.5 -28v-1h-1h-1zM100 -4l-64 25l241 662l68 -20z" />
    <glyph glyph-name="glyph218" horiz-adv-x="500" 
 />
    <glyph glyph-name="Aring" unicode="&#xc5;" 
d="M425 232l-127 333l-121 -332zM271 691h53l255 -691h-72l-57 163q-75 0 -148 0.5t-149 0.5l-64 -164h-72z" />
    <glyph glyph-name="aring" unicode="&#xe5;" horiz-adv-x="406" 
d="M296 22q-20 -14 -46 -22.5t-55 -8.5q-34 0 -64 12.5t-52.5 33.5t-36 49.5t-13.5 60.5q0 35 14 64t37.5 50t55 32.5t66.5 11.5l52 -5l37 -11l3 -3q1 7 1 12.5v12.5q0 52 -24 88.5t-63 38.5q-23 0 -46 -3.5t-46 -9.5q2 -8 4.5 -15.5t3.5 -12.5l-53 -13l-27 89
q49 16 90 24.5t75 8.5q30 -1 57.5 -15t48 -38t33.5 -55.5t15 -67.5v-10q-1 -12 -1 -23.5v-25.5q-1 -23 -1 -52v-58v-52q1 -8 1 -21v-27q0 -10 0.5 -28.5t0.5 -32.5h-67v22zM293 211l-6.5 6.5t-8.5 6.5l-40 12l3 -1l-40 3q-43 -1 -73 -25.5t-30 -65.5q0 -37 28 -62.5
t69 -25.5q42 0 71 25.5t29 62.5z" />
    <glyph glyph-name="copyright" unicode="&#xa9;" horiz-adv-x="833" 
 />
    <glyph glyph-name="Ecircumflex" unicode="&#xca;" horiz-adv-x="485" 
d="M222 249h-120v-180h342l1 -69h-411l-1 691h411v-67h-342v-306h120v-69zM237 861l124 -121l-46 -44l-77 78l-78 -78l-44 45z" />
    <glyph glyph-name="Ocircumflex" unicode="&#xd4;" horiz-adv-x="709" 
d="M523 559q-32 35 -79 50.5t-98 15.5t-101 -16t-83 -54t-47.5 -94t-14.5 -116t15 -116.5t47 -94.5q33 -38 82 -55.5t102 -17.5t102.5 18t81.5 56q33 38 48.5 94t15.5 116q0 63 -16.5 119t-54.5 94v1zM573 81q-44 -48 -103.5 -69t-123.5 -21q-63 0 -125.5 22t-105.5 70
q-44 49 -64.5 118t-20.5 144q0 36 4.5 72t14.5 69.5t25.5 63t37.5 53.5q43 49 105.5 70.5t128.5 21.5q67 0 129 -23.5t105 -71.5q42 -48 61.5 -115.5t19.5 -139.5q0 -78 -21 -147t-67 -117zM349 861l124 -121l-46 -44l-77 78l-78 -78l-44 45z" />
    <glyph glyph-name="Ucircumflex" unicode="&#xdb;" horiz-adv-x="598" 
d="M111 182q4 -24 18.5 -46t38.5 -38.5t56 -26.5t71 -10q36 0 67 10t54.5 26.5t38 38.5t18.5 46v509h69v-512q-3 -38 -22.5 -72t-52 -60t-76.5 -41t-96 -15q-53 0 -98.5 15t-79.5 40.5t-54.5 60t-23.5 72.5v512h72v-509zM293 861l124 -121l-46 -44l-77 78l-78 -78l-44 45z
" />
    <glyph glyph-name="breve" unicode="&#x2d8;" horiz-adv-x="833" 
 />
    <glyph glyph-name="ring" unicode="&#x2da;" horiz-adv-x="833" 
 />
  </font>
</defs>
</svg>
